<?xml version="1.0" standalone="no"?>
<!DOCTYPE svg PUBLIC "-//W3C//DTD SVG 1.1//EN" "http://www.w3.org/Graphics/SVG/1.1/DTD/svg11.dtd" >
<svg>
<metadata>
Created by FontForge 20110222 at Sun Sep 14 20:39:32 2014
 By Orthosie Webhosting
Copyright (c) 2011 by Nate Piekos. Blambot.com. All rights reserved.
</metadata>
<defs>
<font id="ChainsawzBBRegular" horiz-adv-x="355" >
  <font-face 
    font-family="ChainsawzBBRegular"
    font-weight="400"
    font-stretch="normal"
    units-per-em="1000"
    panose-1="2 0 5 6 0 0 0 2 0 4"
    ascent="750"
    descent="-250"
    x-height="599"
    cap-height="575"
    bbox="-10 -127 683.222 700"
    underline-thickness="50"
    underline-position="-50"
    unicode-range="U+0020-2122"
  />
<missing-glyph horiz-adv-x="442" 
d="M40 573h358v-573h-358v573zM135 40h173v489h-173v-489z" />
    <glyph glyph-name="copyright" unicode="&#x28;c&#x29;" horiz-adv-x="698" 
d="M676 261l-27 -35l16 -21l-25 -27l-5 -34l-23 -22q0 -7 -1 -13q-2 -13 -5 -15q-4 -1 -18 -10q-7 -4 -15 -9q-3 -10 -7 -17q-7 -16 -12 -18q-2 -1 -7.5 -1.5t-10.5 -1.5q-6 -1 -14 -3q-3 -8 -6 -13q-7 -13 -11 -14q-2 -1 -7 -1t-10 -1q-6 -1 -13 -2l-13 -18q-9 -2 -17 -5
q-15 -5 -26 -14l-25 7q-8 -5 -14 -9q-5 -3 -10.5 -5.5t-7.5 -2.5t-7.5 1t-11.5 2.5t-11.5 3t-6.5 1.5q-2 0 -5 -2t-7 -4.5t-7 -4.5t-4 -2q-3 1 -11.5 7t-9.5 9q0 1 -6 0.5t-13.5 -1.5t-14.5 -2t-8 1q-2 1 -4.5 5t-4.5 9l-6 12q-7 -3 -13 -5q-5 -2 -9.5 -3t-4.5 1
q-1 3 -6 13.5t-6 12.5t-5.5 1.5t-9.5 -2.5q-6 -2 -13 -4l-9 17h-17h-13t-7 2q-2 3 -4.5 15t-4.5 17q-2 2 -5.5 5t-8.5 6t-11 6v30l-10 -2q-4 -1 -7.5 -1.5t-4.5 1.5q0 1 -0.5 7t-0.5 12.5v12v7.5q0 4 -7 8t-9 7q0 1 -0.5 6t-0.5 10.5v11v7.5q0 4 -10.5 5t-10.5 3q0 1 1.5 6
t3 11t2.5 11t1 7q-1 2 -2 5t-3 6q-2 4 -4 7q3 9 7 18q2 7 4.5 13.5t2.5 8.5q0 1 -2.5 4t-5.5 6q-4 4 -8 7q8 9 14 17q5 7 9 12.5t5 7.5q1 3 -2 14t-1 14q1 1 4.5 5t7.5 8l7.5 7.5t4.5 5.5q0 1 -2 4t-5 6l-5 5t-1 3q2 0 8 4.5t14 9.5q9 6 19 14q-1 8 -1 14q0 12 3 14
q1 1 5.5 4.5t9.5 7.5t9.5 7.5t5.5 4.5q3 1 3 12v11q9 2 18 5q7 2 13.5 4t8.5 3q3 1 4 10t5 11q1 1 6.5 2t12 2t11.5 2t7 2t3 5t3 9t3 11q9 -1 17 -3q7 -2 13 -3t8 -2t4 3t4 9q3 6 5 14l35 -4l19 21l17 -20l19 23l21 -11l24 11q1 -5 3 -9q4 -9 6 -9t7 0.5t11 2.5q7 2 15 4
q2 -8 5 -13q2 -5 5 -8.5t6 -2.5q7 2 15 7l10 6q2 -7 5 -12q2 -5 5.5 -8.5t6.5 -3.5q3 -1 7.5 -0.5t8.5 0.5h9l6 -26l29 4l9 -33l36 -4v-26q6 -3 11 -5t8 -3.5t5 -3.5t2 -8.5t-1 -13.5l-2 -18l14 -2q5 -1 9 -2.5t5 -2.5q0 -2 -0.5 -7.5t-2.5 -10.5l-4 -14l23 -22l-8 -16
l-5.5 -11t-2.5 -7q0 -1 3 -4.5t6.5 -8t7 -8l4.5 -4.5q1 -2 -2.5 -7.5t-8.5 -12.5l-12 -18zM575 250l19 34l-16 28l11 34l-17 15l2 32l-22 18q1 7 1 13v9.5t-1 5.5q-3 2 -14 4.5t-15 2.5q-2 0 -3 4.5t-3 9.5q-2 6 -3 14h-15h-10.5t-6.5 1t-2 4.5v8v8.5t-2 4q-4 1 -15.5 -0.5
t-15.5 -1.5q-2 0 -4 3.5t-3.5 8t-3 8.5t-2.5 4q-3 0 -16.5 -5.5t-19.5 -6.5q-7 -1 -12 6q-3 3 -5 7q-5 -3 -9 -5q-10 -4 -13 -4q-2 -1 -10 5q-4 3 -7 6l-18 -1l-16 -18l-33 5l-9 -20l-39 -3q-2 -6 -4 -11q-4 -11 -7 -13q-2 -2 -6.5 -3t-9.5 -3l-12 -4q2 -11 -8.5 -16.5
t-13.5 -7.5q-2 -3 -6.5 -16t-6.5 -16l-5 -5t-8 -7t-11 -9l4 -8q4 -8 2 -11q-3 -5 -12 -13q-5 -4 -11 -10q2 -3 5 -6q6 -6 6 -10q0 -2 -3 -6.5t-7 -9.5l-10 -12q3 -3 6 -7q5 -7 5 -9q-1 -2 -3 -8.5t-5 -13.5q-4 -9 -7 -18q4 -2 8 -5q6 -4 8 -9q2 -4 0 -16q-1 -6 -2 -13l8 -6
q8 -6 8 -9q-1 -2 -1 -15q0 -6 -1 -13l20 -5l1 -33l23 -1l12 -24l29 -7l4 -10q2 -4 3 -7.5t2 -4.5q2 -2 12 -2.5t13 -1.5q2 -1 4 -4.5t5 -8.5t7 -13l15 11q2 -6 5 -10q2 -4 4.5 -7t4.5 -2q1 0 4.5 2t7.5 4q4 3 9 6l28 -11l17 15l24 -9l17 17q11 1 21 2q18 2 25 4q2 0 5.5 4.5
t7.5 9.5l10 14l39 9l3 28l16 8q6 3 11.5 6t7.5 5q2 1 3 6t1 10v14l22 20l-1 25l20 20zM441 326l13 -17l-15 -18l13 -23q-19 -1 -34 0q-13 1 -23 3t-8 7l-7 17q1 3 2 7q2 9 -1 20q1 4 1 8v9.5t-2 11.5q-2 -2 -6 -3q-3 -1 -6.5 0t-8.5 6q-5 -4 -9 -7q-4 -2 -9.5 -3t-10.5 2
l-17 -3q1 -7 1 -13q0 -5 -1 -10.5t-5 -9.5l12 -31l-10 -17l13 -19q0 -6 -1 -10q-2 -10 -1 -12q2 -3 10.5 -7.5t11.5 -5.5q2 -1 2 -4t1 -6q0 -4 1 -9h19l18 -6q1 6 4 10q2 4 6 7t10 4l15 20l28 -29l-2 -37l-19 -7v-12q0 -12 -6 -24l-8 -6q-4 -2 -8.5 -4t-10.5 -1l-21 -11
l-20 4q-6 4 -11 8q-9 6 -17 10q-4 1 -6.5 4t-4.5 7q-3 4 -5 9l-28 6l-4 10t-3 9t-1 7q0 5 -8.5 11t-10.5 10q-2 3 -1 17t2 18q1 2 -1 6t-4 9l-6 12q2 8 2 16q0 15 -10 25q2 7 2 13q0 13 -10 21l6 27q-2 1 -2 4q0 2 1.5 6.5t6.5 12.5l-8 27q4 -1 8 -1q4 -1 11 -1q2 0 4.5 3
t5.5 7q4 4 7 11q5 -3 10 -4t9.5 0t9.5 7q6 -4 12 -6q5 -2 12 -0.5t13 7.5q6 -4 12 -6q5 -2 12 -1.5t15 6.5q6 -3 11 -5t10 -2t10 5l19 -11l16 7l14 -13q0 -6 -1 -12q-2 -13 -10 -25q4 -6 7 -10q2 -4 4 -7.5t3 -5.5q2 -3 -6 -11z" />
    <glyph glyph-name="registered" unicode="&#x28;R&#x29;" horiz-adv-x="698" 
d="M676 261l-27 -35l16 -21l-25 -27l-5 -34l-23 -22q0 -7 -1 -13q-2 -13 -5 -15q-4 -1 -18 -10q-7 -4 -15 -9q-3 -10 -7 -17q-7 -16 -12 -18q-2 -1 -7.5 -1.5t-10.5 -1.5q-6 -1 -14 -3q-3 -8 -6 -13q-7 -13 -11 -14q-2 -1 -7 -1t-10 -1q-6 -1 -13 -2l-13 -18q-9 -2 -17 -5
q-15 -5 -26 -14l-25 7q-8 -5 -14 -9q-5 -3 -10 -5.5t-7 -2.5t-7.5 1t-12 2.5t-12 3t-6.5 1.5q-2 0 -5 -2t-7 -4.5t-7 -4.5t-4 -2q-3 1 -11.5 7t-9.5 9q0 1 -6 0.5t-13.5 -1.5t-14.5 -2t-8 1q-2 1 -4.5 5t-4.5 9l-6 12q-7 -3 -13 -5q-5 -2 -9.5 -3t-4.5 1q-1 3 -6 13.5
t-6 12.5t-5.5 1.5t-9.5 -2.5q-6 -2 -13 -4l-9 17h-17h-12.5t-6.5 2q-2 3 -5 15t-5 17q-2 2 -5.5 5t-8.5 6t-11 6v30l-10 -2q-4 -1 -7.5 -1.5t-3.5 1.5q-1 1 -1.5 7t-0.5 12.5v12v7.5q0 4 -7 8t-9 7q0 1 -0.5 6t-0.5 10.5v11v7.5q0 4 -10 5t-10 3q0 1 1 6t2.5 11t2.5 11t1 7
q-1 2 -2 5t-3 6q-2 4 -4 7q3 9 7 18q2 7 4.5 13.5t2.5 8.5q0 1 -2.5 4t-5.5 6q-4 4 -8 7q8 9 14 17q5 7 9 12.5t5 7.5q1 3 -2 14t-1 14q1 1 4.5 5t7.5 8l7.5 7.5t4.5 5.5q0 1 -2 4t-5 6l-5 5t-1 3q2 0 8 4.5t14 9.5q9 6 19 14q-1 8 -1 14q0 12 3 14q1 1 5.5 4.5t10 7.5
t9.5 7.5t6 4.5q2 2 2 12v11q10 2 19 5q17 5 21 7q3 1 4 10t5 11q2 1 7.5 2t11.5 2t11 2t7 2t3 5t3 9t3 11q9 -1 17 -3q7 -2 13 -3t8 -2t4 3t4 9q3 6 5 14l36 -4l18 21l17 -20l19 23l21 -11l24 11q1 -5 3 -9q4 -9 6 -9t7 0.5t11 2.5q7 2 15 4q2 -8 5 -13q2 -5 5 -8.5t6 -2.5
q7 2 15 7l10 6q2 -7 5 -12q2 -5 5.5 -8.5t6.5 -3.5q3 -1 7.5 -0.5t8.5 0.5h9l6 -26l29 4l9 -33l36 -4v-26q6 -3 11 -5t8 -3.5t5 -3.5t2 -8.5t-1 -13.5l-2 -18l14 -2q5 -1 9 -2.5t5 -2.5q1 -2 0 -7.5t-3 -10.5l-4 -14l23 -22l-8 -16l-5.5 -11t-2.5 -7q0 -1 3 -4.5t6.5 -8
t7 -8l4.5 -4.5q1 -2 -2.5 -7.5t-8.5 -12.5l-12 -18zM575 250l19 34l-16 28l11 34l-17 15l2 32l-22 18q0 7 1 13q0 5 0.5 9.5t-1.5 5.5q-3 2 -14 4.5t-15 2.5q-2 0 -3.5 4.5t-2.5 9.5l-2 14h-15h-11t-7 1t-2 4.5v8v8.5t-2 4q-4 1 -15.5 -0.5t-15.5 -1.5q-2 0 -4 3.5t-3.5 8
t-3 8.5t-2.5 4q-3 0 -16.5 -5.5t-19.5 -6.5t-11 6q-3 3 -5 7l-10 -5q-10 -4 -13 -4q-2 -1 -10 5q-4 3 -7 6l-18 -1l-16 -18l-33 5l-9 -20l-39 -3q-2 -6 -4 -11q-4 -11 -7 -13q-2 -2 -6.5 -3t-9.5 -3l-12 -4q2 -11 -8.5 -16.5t-13.5 -7.5q-2 -3 -6.5 -16t-6.5 -16l-5 -5
t-8 -7t-11 -9l4 -8q4 -8 2 -11q-3 -5 -12 -13q-5 -4 -11 -10q2 -3 5 -6q6 -6 6 -10q0 -2 -3 -6.5t-7 -9.5l-10 -12q3 -3 6 -7q6 -8 5 -9q-1 -2 -3 -8.5t-5 -13.5q-4 -9 -7 -18q4 -2 8 -5q7 -5 9 -9v-6.5t-1 -9.5q-1 -6 -2 -13l8 -6q8 -6 8 -9q-1 -2 -1 -15q0 -6 -1 -13
l20 -5l1 -33l23 -1l12 -24l29 -7l4 -10q2 -4 3 -7.5t2 -4.5q2 -2 12 -2.5t13 -1.5q2 -1 4 -4.5t5 -8.5t7 -13l15 11q2 -6 5 -10q2 -4 4.5 -7t4.5 -2q2 0 5 2t7 4q4 3 9 6l29 -11l16 15l25 -9l16 17q11 1 21 2q18 2 25 4q2 0 5.5 4.5t7.5 9.5l10 14l39 9l4 28q8 4 15 8
q6 3 11.5 6t7.5 5q2 1 3 6t1 10v14l22 20l-1 25l20 20zM482 392q1 0 1 -1q0 -3 1 -4q-4 -2 -5 -3t-2 -1l1 -21l-11 -8q0 -6 1 -10q0 -4 0.5 -7t-0.5 -4q-8 -5 -7 -14t-1 -10q-2 -2 -9 -4l-6 -2l-1 -17l-15 -5l-3 -18l-14 -4l7 -8l6 -26q2 -4 4 -7q4 -8 4 -9q0 -2 -0.5 -6
t-0.5 -9v-12q5 -6 7 -15.5t4 -18.5q2 -11 3 -22l4 -4l-79 -29l4 22q-4 1 -7 3q-7 3 -7 7v36l-16 20q3 8 -0.5 14.5t-6.5 10.5l-18 -25q2 -7 3 -13q2 -13 -7 -21q2 -10 3 -19q1 -8 -0.5 -15t-7.5 -12l7 -14q-17 -2 -37.5 -3t-36.5 -2q-2 5 -5.5 11.5t-5.5 8.5q-1 1 0.5 6.5
t3.5 11.5t4.5 11.5t2.5 6.5q0 2 -6 10q-3 4 -7 8l4 14q2 5 3.5 10.5t1.5 7.5t-2 5.5t-4 7.5l-6 10q1 7 3 14q2 5 2.5 10.5t1.5 7.5t-1 5t-4 7q-3 4 -7 10l12 29l-12 26l9 21l-15 21l2 22l-2 17q7 -2 13 -2q5 0 11.5 1.5t11.5 6.5l22 -4l12 6q5 2 11.5 3t12.5 -2l16 11
q5 -2 10 -3q10 -2 14 -2q3 0 10 7l8 8l24 -9l18 14l17 -10l23 14l26 -5l4 -16q2 -7 2.5 -14.5t-1.5 -12.5zM391 346l-21 -7l-14 6l-11 -11l-19 2l-15 -6l10 -21l-9 -8l6 -15l-4 -5l3 -16l13 10l13 4l11 15l16 3l4 22l11 6z" />
    <glyph glyph-name=".notdef" horiz-adv-x="442" 
d="M40 573h358v-573h-358v573zM135 40h173v489h-173v-489z" />
    <glyph glyph-name=".null" horiz-adv-x="0" 
 />
    <glyph glyph-name="nonmarkingreturn" horiz-adv-x="174" 
 />
    <glyph glyph-name="space" unicode=" " horiz-adv-x="174" 
 />
    <glyph glyph-name="space" unicode="&#xa0;" horiz-adv-x="174" 
 />
    <glyph glyph-name="exclam" unicode="!" horiz-adv-x="205" 
d="M192 511q1 -2 -1.5 -5t-6.5 -7t-8 -7t-4 -4q-1 -2 0.5 -7t3.5 -10q2 -6 4 -13l-20 -36l11 -30q-6 -5 -10 -9t-7 -7.5t-3 -4.5q-1 -2 1.5 -8t5.5 -12l8 -16l-18 -23l7 -36l-17 -21l8 -28q-3 -8 -7 -14q-3 -5 -5.5 -10l-3.5 -7t-0.5 -6.5t0.5 -10.5t-1.5 -12t-5.5 -11
l1 -29l-50 -6v10q0 8 2 12q1 2 -5 10q-3 4 -7 7q2 7 5 12q2 5 3.5 8.5t2.5 5.5q0 2 -1 6.5t-3 9.5q-2 6 -5 13l15 18l-15 17l16 29l-13 19q3 8 6 15q2 6 4 11.5t2 8.5q-2 7 -8 17q-4 5 -7 12q3 9 7 17q3 7 5 13.5t3 9.5q2 5 -4.5 10.5t-8.5 8.5q-2 1 0 5t5 8.5t6 8.5t3 6
t-2 6.5t-4 9.5q-3 6 -5 13q3 8 6 15q2 6 4 11t2 7q0 1 -2.5 5t-4.5 8q-4 4 -7 10l15 21l-18 27l64 6q24 2 44.5 4.5t22.5 2.5l-5 -32l-17 -19q3 -8 7 -15l5.5 -11t4.5 -7zM156 65l-20 13l-22 -13l-33 8q-2 -7 -4 -11t-3 -7.5t-3 -2.5t-6.5 2t-9.5 3q-6 2 -13 3l-11 -20
l-16 10l7 -70l17 12l19 -13l23 9l19 -9l21 15l23 -9q5 5 11 6t11 1t10 -2l13 52l-2 41z" />
    <glyph glyph-name="quotedbl" unicode="&#x22;" horiz-adv-x="287" 
d="M135 574l-15 -22q5 -5 6 -10t0 -10q-2 -5 -5 -11l9 -17l-18 -22q9 -9 1 -20q-4 -5 -9 -11q7 -12 4 -24q-2 -6 -5 -11l-67 -9l9 30l-19 14l10 28l-14 18l11 30l-14 22l9 17l-17 22l8 10l113 10l-12 -20zM262 521q3 6 5 11q1 5 0 10t-6 10l15 22l-15 14l12 20l-113 -10
l-8 -10l17 -22l-9 -17l14 -22l-11 -30l14 -18l-10 -28l19 -14l-9 -30l67 9q3 5 5 11q3 12 -4 24q5 6 9 11q8 11 -1 20l18 22z" />
    <glyph glyph-name="numbersign" unicode="#" horiz-adv-x="480" 
d="M470 166l-23 12l-11 -17l-45 13l-8 -7q-5 -7 -5 -14t1 -13t2 -10.5t0 -6.5q-5 -8 -7 -15.5t-2 -13.5q0 -7 2 -13l-83 -13l13 27l-15 23l6 32l-22 13l-12 -8q-12 -7 -17 -7q-4 0 -15 6t-15 6q-2 0 -4 -1t-5 -2q1 -5 1 -9.5t1 -8.5q0 -4 1 -9l-14 -26l7 -31l-5 -22l7 -30
l-90 -24l-5 32q2 5 2 10q0 11 -4 23l6 12q2 5 3.5 9.5t2.5 6.5t-1.5 5t-5.5 7q-4 4 -8 9l14 31l-2 2l-23 16l-21 -15l-31 10l-23 -10v94q8 -2 14.5 -0.5t11.5 3.5q6 3 11 7l42 -8l17 14l-10 17l7 35l-6 10h-4h-1l-37 -20l-15 24l-21 -17l-14 115l23 -12l11 17l44 -14l22 19
q-1 5 -7 13q-3 4 -5 7l5 28l-11 26l12 23l-18 26l130 21q1 -9 0 -18q-1 -8 -3 -16.5t-7 -16.5l12 -26l-14 -26l6 -12q2 -5 4 -9.5t3 -6.5t-2.5 -8t-6.5 -11q5 3 14 8.5t13 5.5t15 -6t15 -6q3 0 10.5 3.5t13.5 6.5l-7 24l15 20l-20 24l12 34l-20 35l125 6l-10 -28l13 -25
l-13 -27l11 -23q-4 -6 -8 -11q-3 -5 -5.5 -9t-1.5 -6q2 -3 5.5 -9.5t5.5 -10.5l17 11l30 -10l24 10v-94q-8 2 -15 0.5t-12 -3.5q-6 -3 -11 -7l-41 8l-4 -12l11 -23l-16 -22l8 -19l36 19l15 -23l21 17zM291 271l3 -1l-6 19l13 25l-3 9q-4 1 -9 2.5t-10 3.5q-6 2 -12 5
q-6 -5 -10 -9q-4 -3 -7.5 -6t-5.5 -3q-4 -1 -17 6q-6 3 -13 7l-6 -3q1 -3 1 -5t1 -4q0 -2 1 -3l-13 -27q2 -6 5 -10q2 -4 4 -7.5t3 -5.5t-0.5 -4.5t-3.5 -5.5q4 -2 6 -2q1 -1 2 -1q6 5 10 9q4 3 7.5 5.5t5.5 3.5t7.5 -1.5t10.5 -4.5q6 -4 13 -7z" />
    <glyph glyph-name="dollar" unicode="$" horiz-adv-x="350" 
d="M340 186l-5 -35l-26 -12l-7 -30l-25 -9l-2 -40l-19 -4v-22l23 -25l-16 -25q5 -8 7 -17.5t3 -17.5q0 -10 -1 -20l-57 -25l2 39l-28 11l17 28l-12 14l-6 -14h-25l-19 -31l-20 3l-23 -32q-13 19 -21 35q-8 14 -12 25t1 11l11 24l21 -7l10 31l22 -3l4 29l29 7q2 6 5 11
q2 5 3.5 9t1.5 6q-1 2 2.5 4.5t8.5 4.5q5 3 12 5l1 26l23 16l-7 27l-33 2q-1 7 -1 12v15q-1 2 -5.5 2h-9.5h-14l-10 18l-34 9l-12 25l-36 10v27l-23 11l-1 32l-29 7l3 35l24 3l-2 23l16 9l-3 31l33 19l4 27l18 4l4 19l-21 11l16 30l-27 25l23 25l-20 30l102 27l-13 -45
q5 -6 5.5 -14t-1.5 -16q-3 -9 -7 -18q9 -12 6 -23.5t-5 -15.5l19 5l17 36l39 5l7 23q13 0 24 -1q9 -1 17.5 -1.5t10.5 -0.5q2 -1 1.5 -5.5t-2.5 -9.5q-2 -6 -5 -14q4 -6 6 -13q2 -6 0.5 -13t-6.5 -13l15 -27l-15 -27l12 -22l-16 -29l17 -25l-13 -21l13 -26l-89 -10l-7 18
q3 7 3 12t-2.5 8.5t-11.5 3.5q1 11 0 19q-1 7 -3.5 10.5t-8.5 -2.5l-27 -10v-23l-23 -4l3 -20l23 -11l-2 -16l12 -4q5 -2 9.5 -3.5t6.5 -1.5q3 -2 5 -11q1 -4 1 -10l29 -8l5 -18l28 -12l3 -26h36v-29z" />
    <glyph glyph-name="percent" unicode="%" horiz-adv-x="569" 
d="M294 214q-1 -2 -2.5 -8.5t-3 -13.5t-3 -13.5t-1.5 -8.5q-1 -5 -11.5 -15t-12.5 -15q-1 -3 -4 -10.5t-6 -15.5l-8 -20l-26 -21l-11 -37l-17 -20l-10 -35l-93 16l13 36q3 5 7 10q7 11 10 27q6 6 11 10t9 7.5t6 5.5t1.5 6.5t-1.5 9.5q-1 6 -3 13l29 26v28l24 22l5 34l30 32
v26l26 34l1 33l12 12q5 5 9.5 9t6.5 6t4 7t4 11l4 16q5 6 9 12q4 5 8 9.5t7 6.5q2 1 3 6.5t1 10.5q0 6 -1 14l20 27l5 32l23 19l-2 36l127 -38q-5 -10 -10 -19q-5 -8 -12 -16.5t-15 -13.5l-3 -33l-27 -21q-1 -8 -2 -15q-1 -6 -1.5 -12t-0.5 -8t-4 -5t-8.5 -6.5t-8.5 -6.5
t-5 -5q-2 -2 -2.5 -7.5t-1.5 -10.5q-1 -6 -1 -14q-9 -10 -16 -19q-6 -8 -12 -14t-7 -8q-4 -5 -7 -19l-4 -16l-27 -22v-13q0 -5 -0.5 -9.5t-0.5 -6.5q-1 -5 -11 -9.5t-12 -9.5zM99 326l-34 -15q0 12 -1 23q-1 9 -1.5 17t-1.5 10q0 3 -5.5 5t-12 4.5t-12 4.5t-5.5 4t1.5 8
t3.5 13t3.5 13.5t1.5 9.5q0 2 -3.5 5t-8.5 6q-5 4 -12 7l28 33l-7 33l43 12q1 6 3 11t3 8.5t1 5.5t6.5 1t14.5 -3q10 -2 22 -5l17 25l34 -36l25 14q9 -2 16 -5q6 -2 11 -4t6 -4q1 -5 -2 -15l-4 -12l36 -26q-5 -8 -9 -14q-4 -5 -6.5 -10.5t-2.5 -7.5t4 -7t9.5 -11t9.5 -12
t4 -9q0 -4 -5 -7t-11 -5q-7 -3 -16 -5q-3 -11 -5 -21q-2 -8 -3.5 -15.5t-3.5 -9.5q-1 -3 -6 -3t-11 1t-12 2.5t-9 2.5t-4.5 -3.5t-1.5 -10.5q0 -7 1 -16l-36 8l-23 -23zM119 422l-10 -19q5 -1 9 -2q9 -2 11 -5q0 -2 1.5 -5t3.5 -6q2 -4 4 -7l10 19l19 -5v10q0 4 -0.5 7
t0.5 5q0 2 5 5q2 2 5 4l-18 8l6 15l-13 8l-10 -13l-18 7l-15 -18zM556 105q0 -3 -5 -6t-11 -5q-7 -3 -16 -5q-3 -11 -5 -21q-2 -8 -3.5 -16t-3.5 -10q-1 -2 -6 -2.5t-11 0.5t-12 2.5t-9 3.5q-3 1 -4.5 -3.5t-1.5 -10.5q0 -7 1 -16l-36 8l-23 -23l-28 28l-35 -15q0 11 -1 22
q-1 9 -1.5 17t-1.5 11q0 3 -5.5 5t-12 4.5t-11.5 4.5t-5 4t1.5 8t3.5 13t3.5 13.5t1.5 8.5t-4 5.5t-9 6.5q-5 4 -12 7l28 33l-7 33l43 12q1 6 3 10q4 10 4 14q0 2 6.5 1.5t14.5 -2.5q10 -2 22 -5l17 25l32 -30l27 8q9 -2 16 -5q6 -2 11 -4t6 -4q1 -5 -2 -15l-4 -12l36 -26
q-5 -8 -9 -14q-4 -5 -6.5 -10.5t-2.5 -7.5t4 -7t9.5 -11.5t9.5 -12.5t4 -9zM459 126l-18 7l6 16l-13 8l-10 -13l-18 7l-14 -18l9 -8l-9 -19q5 -1 9 -2q8 -2 10 -6q0 -2 1.5 -4.5t3.5 -5.5q2 -4 4 -7l10 19l19 -5v10q0 4 -0.5 7t0.5 5q0 1 1.5 2t3.5 3t5 4z" />
    <glyph glyph-name="ampersand" unicode="&#x26;" horiz-adv-x="414" 
d="M398 202l-18 5l-8 -18l-27 6q2 -6 2.5 -11.5t0.5 -9.5t-1 -8l7 -19l-10 -20q3 -5 3 -10.5t-2 -10.5t-5 -11q3 -6 3.5 -11.5t-0.5 -10.5t-3 -10q3 -6 1.5 -11t-4.5 -9q-4 -4 -9 -7l-10 -21l-15 11v-13q-8 -5 -15 -9q-7 -3 -14 -4.5t-12 0.5q-7 -5 -12 -9q-11 -9 -16 -9
q-4 0 -6 8t-4 13q-1 3 -5.5 2t-10.5 -3.5t-11 -4.5t-7 -1q-2 0 -4 5l-4 10q-2 6 -4 15l-21 -15l-12 26l-19 -7l-3 26l-24 2q-1 7 -3 14q-3 14 -15 21q-2 1 -2.5 5.5t-0.5 10.5t1 15l-26 19l4 25l-13 29l9 26l-13 21l9 29l-10 17l18 26q9 4 14 8t7 9.5t-3 13.5l29 21
q-3 1 -6 5q-6 6 -5 18l-19 8q-1 6 -4 13q-3 5 -8 12t-13 12l5 23l-26 14q0 7 -1 13q-2 12 -9 19l7 36l27 20l19 -11q8 5 15 9q6 4 11.5 7t7.5 5q2 1 5.5 -1t7 -5t6.5 -6t5 -3t5.5 2.5t7.5 5.5q4 4 9 8l40 -7q7 4 14 7q6 2 14 3.5t16 -0.5l33 15l29 -11l21 10h1l-4 -109
l-14 16q-11 -3 -21 -4q-9 -1 -18 -0.5t-15 5.5l-25 -18q-7 3 -13 4q-5 1 -12 -1t-12 -8l-46 7l-4 -23l19 -9v-23l24 5l19 -19l24 8l19 -21q9 2 19 3q8 1 16.5 -0.5t14.5 -5.5l23 10l-18 -89l-24 -13l-30 16l-20 -19l-19 20l-34 -16q-8 -4 -13 -9t-8 -10.5t-1 -11.5l-14 -25
l14 -19q-3 -8 -3 -15q0 -6 2 -12t8 -9l-5 -28l19 -8l-2 -27l24 2q1 -8 3 -13q4 -13 15 -13q2 -4 6 -8q3 -3 7.5 -6t11.5 -2l4 -5l7 6l21 3l-7 27q4 4 4 11.5t-1 15.5q-2 9 -4 19l14 15l-17 31q4 5 4.5 12.5t-0.5 13.5q-1 7 -4 15l32 2l-1 13l24 -2l12 12l10 -4q10 -4 12 -4
q3 0 11 5l10 6l9 -11l19 10z" />
    <glyph glyph-name="quotesingle" unicode="'" horiz-adv-x="151" 
d="M134 504l-18 -22q9 -9 1 -20q-4 -5 -9 -11q7 -12 4 -24q-2 -6 -5 -11l-67 -9l9 30l-19 14l10 28l-14 18l11 30l-14 22l9 17l-17 22l8 10l113 10l-12 -20l15 -14l-15 -22q5 -5 6 -10t0 -10q-2 -5 -5 -11z" />
    <glyph glyph-name="parenleft" unicode="(" horiz-adv-x="267" 
d="M226 634l22 -28l-10 -23l-19 -5l8 -24l-29 -16l5 -20l-18 -17l-4 -30l-29 5l6 -43l-24 -18l6 -31l-19 -25l9 -23l-13 -21l13 -25q-4 -6 -8 -11q-7 -11 -7 -14q0 -4 7 -16q4 -6 8 -13l-12 -13l12 -29l-7 -17l14 -16l-7 -17l15 -17l-8 -25l8 -8q3 -3 5.5 -6t3.5 -3
q1 -1 -3 -9q-2 -4 -5 -8l16 -12l-2 -20q7 -3 12 -5q10 -5 14 -5q1 0 0.5 -3.5t-0.5 -7.5q-1 -4 -1 -10l20 -10v-8q-1 -4 -1 -8l24 -12l-48 -66q-8 2 -14 5q-12 5 -16 5q-1 0 -2.5 3t-3 7.5t-2.5 8t-1 4.5t-5 1h-10q-6 0 -14 -1l-4 23l-21 19v30l-22 14q1 11 2 21q1 8 2 14.5
t1 8.5q0 1 -3 2.5t-6 2.5q-4 1 -9 2q0 11 1 20q1 8 1 14t1 8q0 2 -9 7q-4 3 -10 5l7 41l-20 13q2 11 5 20l3.5 14t1.5 8q0 3 -8 7.5t-8 6.5q0 1 2 8t4.5 14.5t4.5 14.5t2 8q0 2 -8 8l-8 6l16 30l-16 18l18 20l-11 22l13 16l-6 22l20 15l-11 23l29 23l-6 12q-2 5 -4 9t-1 6
q1 1 5 6t9 10l12 14l-11 27l16 12q6 5 12 9.5t8 6.5t3.5 8t2.5 11q1 6 2 13l27 13v29l42 2z" />
    <glyph glyph-name="parenright" unicode=")" horiz-adv-x="265" 
d="M82 671l43 -2v-29l27 -13q0 -7 1 -13q1 -5 2.5 -11t3.5 -8t8 -6.5t12 -9.5l16 -12l-10 -27l12 -14q5 -5 9 -10t5 -6q0 -5 -5 -15l-6 -12l29 -23l-11 -23l20 -15l-6 -22l12 -16l-11 -22l18 -20l-15 -18l15 -30l-8 -6q-3 -2 -5.5 -4.5t-1.5 -3.5q0 -1 1.5 -8t4 -14.5
t4.5 -14.5t2 -8q1 -2 -7.5 -6.5t-8.5 -7.5q0 -5 5 -22l6 -20l-21 -13l7 -41q-5 -2 -9 -5q-4 -2 -7 -4t-2 -3v-8t1 -14l2 -20q-5 -1 -9 -2q-9 -2 -9 -5q0 -2 0.5 -8.5t1.5 -14.5q1 -10 2 -21l-22 -14l1 -30l-22 -19l-4 -23q-8 1 -14 1h-9.5t-4.5 -1t-1 -4.5t-2.5 -8t-3 -7.5
t-2.5 -3q-4 0 -16 -5q-6 -3 -14 -5l-49 66l24 12q-1 4 -1 8q0 7 1 8q1 0 3.5 1.5t6.5 3.5t9 5q-1 6 -1 10t-0.5 7.5t1.5 3.5q3 0 13 5q5 2 12 5l-1 20l16 12q-3 4 -5 8q-4 8 -3 9q1 0 3.5 3t5.5 6q4 4 7 8l-7 25l14 17l-7 17l15 16l-7 17l12 29l-12 13q3 7 7 13q3 5 5.5 9.5
t2.5 6.5q0 1 -2.5 5t-5.5 9q-4 5 -8 11l14 25l-13 21l9 23l-19 25l6 31l-25 18l7 43l-29 -5l-4 30l-18 17l4 20l-29 16l8 24l-18 5l-10 23l22 28z" />
    <glyph glyph-name="asterisk" unicode="*" 
d="M214 568l13 -10l-12 -16l6 -22l-8 -18l18 3l11 16l15 -1l11 15l18 -2l11 18l46 -65l-11 -1h-18l-6 -27l-22 7l-14 -17l-25 -9l17 -14l-6 -17l15 -5l4 -15q7 -1 13 -2q5 -1 9.5 -1.5t6.5 -0.5q1 0 1.5 -4t0.5 -9t-1 -12l25 -4l-53 -55l1 17l-26 -3l-1 21l-28 2l2 20
l-16 -3l-15 30l-8 -14l-19 -7l-2 -14l-2 -10t0 -6q0 -3 -13 -3h-13q-1 -5 -2 -9q-2 -10 -2 -11q-1 -2 -4.5 -2t-8.5 -1t-13 -1l-3 -20q-14 9 -25 17q-10 7 -20 13.5t-15 9.5l4 24h11q5 0 8.5 -0.5t5.5 0.5q1 0 1.5 3.5t-0.5 8.5t-2 11l25 3l-4 19l26 9l-1 15l-28 1
q-1 6 -1 10q-1 4 -1 7.5t-2 3.5t-6 -0.5t-8 -0.5q-5 -1 -10 -1q0 5 -1 9q-2 10 -2 11q-3 3 -13 5l-12 2l-1 25l-23 3l43 53l8 -20l21 4l12 -28l14 7l21 -21l16 13l-15 18l15 12l-18 18l22 12l-12 20l81 5z" />
    <glyph glyph-name="plus" unicode="+" horiz-adv-x="247" 
d="M240 264l-31 8l-16 -18l-17 5l1 -1l-13 -26l18 -20q-5 -8 -5 -15t2 -12q2 -6 6 -11l-96 -2l16 34l-16 13l4 16l-22 7l-15 -20l-21 11q-6 -6 -11 4.5t-9 25.5q-4 18 -9 42q5 -4 9 -3t7 3q4 3 6 7l32 -12l14 25l-9 10l21 19l-18 17l5 19l89 11l-7 -26l15 -10l-17 -33l5 -5
h1q6 5 10 10t7 8l6 6l25 -16l16 21z" />
    <glyph glyph-name="comma" unicode="," horiz-adv-x="148" 
d="M40 77l92 20q-2 -7 -1.5 -12.5t2.5 -10.5t5 -11q-7 -4 -8 -10t1 -12q2 -7 5 -16q-10 -2 -13 -6t-3 -9q0 -6 3 -13l-15 -12l5 -21l-20 -3l3 -22l-23 -1v-22l-18 -2l-46 29l18 13l-6 22l19 21q-5 6 -5 12t2 11q2 6 5 12l-8 17q7 7 7 17q0 4 -1 9z" />
    <glyph glyph-name="hyphen" unicode="-" horiz-adv-x="215" 
d="M25 309l28 -12l12 26l32 -14l14 24l28 -9q5 5 9 10t6 8q3 4 5 6l22 -16l13 22l15 -93l-27 8l-13 -17l-25 8l-16 -20l-25 6l-19 -15l-21 9l-14 -21l-17 11q-5 -6 -9.5 4.5t-8.5 25.5q-4 18 -8 43q8 -7 14 -1q3 3 5 7z" />
    <glyph glyph-name="period" unicode="." horiz-adv-x="217" 
d="M201 43l-13 -53q-5 2 -10 2t-11 -1t-11 -6l-23 10l-21 -16l-19 10l-23 -10l-19 13l-17 -12l-7 70l16 -10l11 20q7 -1 13 -3q5 -2 9.5 -3t6.5 -1q2 -1 6 10q2 4 4 11l33 -9l23 13l19 -13l31 19z" />
    <glyph glyph-name="slash" unicode="/" horiz-adv-x="414" 
d="M412 554q-5 -10 -10 -19q-5 -8 -12 -16.5t-15 -13.5l-3 -33l-27 -21q-1 -8 -2 -15q-1 -6 -1.5 -11.5t-0.5 -7.5t-4 -5.5t-8.5 -6.5t-8.5 -6.5t-5 -5.5q-2 -2 -2.5 -7.5t-1.5 -10.5q-1 -6 -1 -14l-16 -18q-6 -7 -12 -13.5t-7 -8.5t-2.5 -7.5t-3.5 -11.5q-3 -7 -5 -16
l-26 -22q-1 -7 -1 -13q0 -5 -0.5 -10t-0.5 -7q-1 -5 -11 -9.5t-12 -8.5q-1 -2 -2.5 -8.5t-3 -14t-3 -14t-1.5 -8.5q-1 -5 -11.5 -15t-12.5 -15l-3.5 -10.5t-5.5 -15.5q-4 -10 -9 -20l-26 -21l-11 -36l-17 -21l-10 -34l-93 16l13 36q3 4 7 9q7 11 10 27q6 6 11 10t9 7.5
t6 5.5t1.5 6.5t-1.5 9.5q-1 6 -3 13l30 26l-1 29l25 21l4 35l30 32v26l26 33l1 34q7 6 12 11t9.5 9t6.5 6t4 7t4 11l4 16q5 7 9 13q8 12 15 15q3 2 3.5 7t0.5 10q0 6 -1 14l20 28l5 32l23 18l-2 36l127 -38v0z" />
    <glyph glyph-name="zero" unicode="0" 
d="M322 246q1 -1 2.5 -6t2.5 -11t2 -11.5t2 -7.5q2 -3 -6 -12t-8 -13q0 -2 1.5 -7.5t3.5 -11.5t3 -11t1 -7q-1 -3 -8.5 -10.5t-7.5 -12.5t3.5 -20t1.5 -20t-5.5 -11.5t-13.5 -19.5q-3 -11 -5 -20q-2 -8 -3.5 -14.5t-1.5 -7.5q-1 -2 -4.5 -2t-8.5 1t-13 2l-12 -8
q-5 -3 -8.5 -6.5t-5.5 -4.5q-1 -2 -5.5 -2.5t-10 -1t-10 0t-5.5 1.5t-6 -0.5t-11.5 -4.5t-12 -5t-7.5 -2q-2 1 -5.5 4.5l-8.5 8.5l-11 11q-7 -7 -13 -11q-5 -4 -10 -6.5t-6 -0.5q-2 4 -11.5 8t-11.5 4q-1 1 -4 10t-3 12q0 2 -3.5 5t-8.5 6l-12 8l2 16q1 6 1.5 11.5t0.5 7.5
q0 4 -9.5 9t-11.5 8q-1 1 0.5 6t3.5 11t4 11.5t2 7.5q1 3 -6 11.5t-8 12.5q-1 2 0.5 6t3.5 9l6 12q-6 9 -10 17q-4 7 -6.5 12t-2.5 7t2.5 6.5t5.5 9.5q4 6 9 13l-18 24q1 7 2 13q1 5 1.5 10.5t1.5 7.5q0 2 -1 7t-3 10.5t-3.5 10.5t-1.5 8t1.5 9.5t4 14t4.5 14t2 8.5
q1 1 -2 5t-6.5 8.5t-7 8.5t-3.5 6t1.5 8.5t3.5 14t3.5 14t1.5 8.5t-2 7.5t-4 10.5q-3 6 -5 14l6 12q2 5 5 10t5 7t2 7.5t1 10.5q0 6 1 13q3 2 7 4q3 2 5.5 3t4.5 2q4 2 13 11l9 9l24 -8l17 15q7 -2 13 -3q5 -2 10 -2.5t7 -0.5q4 0 15 7l12 8q6 -1 11 -3t8.5 -3t5.5 -1
q2 -1 5.5 1t7.5 4q4 3 10 5l28 -19l20 6l13 -23l30 2l3 -36l5 -10t3 -8t2 -6q0 -2 -1.5 -6t-3.5 -8l-5 -10l8 -12q3 -5 6.5 -9t5.5 -4t-0.5 -4t-6 -8.5l-7 -9t-3.5 -5.5q-1 -2 2 -6t6 -9l8 -12l-14 -35q3 -9 7 -17q3 -7 5.5 -12.5t2.5 -7.5q0 -1 -2.5 -5t-6 -9t-6 -9
t-2.5 -5q0 -3 7 -11t7 -12t-6 -14t-3 -13zM238 285q-4 7 -7 12q-7 10 -7 15q0 2 3 7.5t6 12t5 11.5t1 5q-2 0 -4.5 3.5t-4.5 7.5l-6 10l8 22l-16 20q3 4 5 8q4 8 3 10q-5 5 -5.5 11t-0.5 11t2 10l-14 7l-28 3q-5 -5 -10.5 -5t-10.5 1t-11 4l-4 -10q-2 -4 -3.5 -7.5
t-1.5 -4.5q-2 -3 -9 -9t-6 -8l3.5 -10.5t1.5 -12.5q-1 -2 -2 -6.5t-3 -8.5q-2 -5 -5 -10q4 -3 7 -7q6 -8 5 -11q-2 -4 -4.5 -15.5t-2.5 -14.5q0 -2 0.5 -5.5t2.5 -7.5t4 -9l-6 -16l-4 -12t-2 -8t1.5 -6.5t4 -9t4 -8.5t1.5 -5q0 -2 -2 -7l-4 -10q-3 -6 -5 -14q3 -5 6 -9
q2 -4 4 -6.5t3 -4.5q1 -1 -0.5 -5.5t-3.5 -10t-3.5 -10t-0.5 -6.5q2 -4 7.5 -12.5t3.5 -11.5t-5.5 -10.5t-1.5 -10.5t8 -8q3 -3 7 -5q-1 -4 -1 -8v-6t1 -5t4 -4.5t6 -4.5q4 -3 7 -5l23 -1l16 -6l4 30q5 -1 9.5 1.5t7.5 5.5q4 4 7 8q6 8 3.5 19.5t-1.5 14.5q0 1 2 4.5t4 7.5
q3 4 5 10q-2 6 -5 11q-2 5 -4 8.5t-2 5.5q-1 1 1 4.5t4 7.5q3 4 7 10l-2 34q-5 5 -5.5 11.5t1.5 11.5q2 6 5 12z" />
    <glyph glyph-name="one" unicode="1" horiz-adv-x="238" 
d="M122 -7l-6 19l17 42l-16 19l13 37l-20 28l19 40l-19 35l14 41l-11 35l7 37l-14 22q1 4 2 9t1.5 10.5t0.5 11.5q0 8 -1.5 15.5t-5.5 12.5l-22 -24l-20 6l-17 -26l-40 114h11q5 0 8.5 -0.5t5.5 0.5t4 5.5t4 9.5q3 6 5 13l29 3l3 31l30 5l19 33l103 2l2 -35q-6 -6 -10 -11
t-8 -9.5t-5 -6.5t1.5 -9t6 -15t7.5 -15t5 -9t-1.5 -8t-5.5 -12t-6.5 -11.5t-3.5 -7.5q-1 -2 1.5 -7t6 -11t7 -11.5t3.5 -6.5q0 -2 -2.5 -6t-6 -9.5t-6.5 -10t-3 -5.5q-1 -2 0 -8t2.5 -13t3 -13.5t1.5 -8.5t-2.5 -8.5t-5.5 -14.5q-4 -9 -8 -19q6 -8 10 -15q8 -13 13 -18
q1 -2 -0.5 -7.5t-4 -12.5t-4.5 -14t-1 -10q1 -7 3.5 -23.5t4.5 -21.5q1 -2 -2 -6.5t-7 -9.5t-11 -12q3 -13 7 -24q3 -9 5 -16.5t4 -9.5q1 -5 -5 -11l-8 -8l9 -41z" />
    <glyph glyph-name="two" unicode="2" horiz-adv-x="321" 
d="M124 336l-87 -4l14 22l-18 37l11 16l-14 30l15 23l-17 25l18 26l-10 38l33 26l23 -12l30 15l35 -12l38 20l48 -16l22 17l18 -20l34 -2l-11 -33l10 -41l-17 -30l9 -43l-18 -25l4 -47l-20 -13l2 -23l-24 -15l2 -12q1 -5 1 -9.5t-1 -5.5t-5.5 -4t-10 -6t-10 -6t-4.5 -4
t0.5 -5.5t1 -10t0.5 -10t-1 -5.5q-1 -2 -11.5 -8t-11.5 -8q0 -1 0.5 -5t1.5 -8t1.5 -8t-0.5 -5q-1 -2 -5.5 -4t-9.5 -4.5t-8.5 -5t-3.5 -3.5v-15v-12h-10h-7.5t-3.5 -2q-1 -2 -0.5 -6t1.5 -9t2 -11l-17 -7v-16q-1 -4 3.5 -4.5t9.5 0.5l14 2l22 13l12 -10l23 14l21 -4l19 14
l12 -7l19 15l10 -75l-22 -9l-4 -6q-4 -6 -6 -6q-2 -1 -6.5 -0.5t-9.5 1.5q-6 1 -13 1l-12 -12l-28 1l-9 -9q-4 -3 -7.5 -6t-4.5 -2q-2 0 -13 3t-13 2t-4 -2.5t-4 -3.5q-3 -2 -5 -4l-25 10q-3 -2 -7 -4q-6 -3 -9 -6t-13 1q-5 2 -11 4l-15 -4l-20 14q-2 -2 -5 -4q-6 -4 -8 -4
q-2 -1 -9 8q-4 4 -7 9l-14 9l14 32l19 4l6 26l17 8l6 22l15 12l1 23l19 10l5 23l24 18l-8 26l20 13q1 6 2 11t1.5 9t0.5 6q-1 2 1.5 4t5.5 5q4 3 7 7l-3 29l29 15l4 21l-5 25l26 27l-10 27l12 16l-17 14l3 15l-3 12l-20 -10l-13 16l-21 -12l-14 3l13 -19l-16 -17l15 -20
l-12 -18l11 -15l-13 -17l2 -20q4 -7 0 -11q-2 -2 -4 -3z" />
    <glyph glyph-name="three" unicode="3" horiz-adv-x="293" 
d="M295 556q-5 -5 -6.5 -11t-2.5 -11q-1 -6 -1 -12l-26 -22l5 -22q-9 -8 -14 -16t-8 -14q-4 -8 -4 -14l-18 -14q0 -12 -5 -20q-3 -4 -6 -7l25 -17q12 -1 17 -10q3 -4 4 -10l19 -20l-11 -21l10 -26l-13 -25l9 -23l-14 -34l5 -23l-26 -27v-14v-10.5t-2 -6.5q-7 -5 -10.5 -12
t-5.5 -13q-3 -7 -3 -15l-23 -10l-3 -26l-19 1l-13 -30l-20 9q-3 -9 -5 -16q-2 -6 -3.5 -11t-3.5 -7q-2 -1 -7 -0.5t-11 1t-10.5 0.5t-5.5 -3q-2 -5 -4 -14t-6 -10q-5 -2 -16 4q-5 2 -12 5q-5 -4 -12.5 -4t-13.5 2q-8 2 -15 4l-2 69q8 -3 15.5 -1.5t13.5 4.5q6 4 12 9l20 -1
l11 18q7 2 12 6t8 8q4 4 5 10q7 2 10.5 7t5.5 10q2 6 3 14l24 5l-2 26l19 14l-5 27q6 5 7.5 11t1.5 12q-1 7 -3 14l14 24l-14 20q2 7 -0.5 12t-7.5 8q-5 4 -14 5l-20 11l-19 -25l-20 13l-16 -22l-23 6l-19 83l24 -3q5 5 12 8t12 5q6 2 12 2l18 27l24 -2l6 21l24 1v24l18 14
l-3 22l-28 -16q-6 5 -13 4t-12 -3q-6 -3 -12 -7l-25 11q-6 -7 -14.5 -9.5t-16.5 -3.5q-9 -1 -18 0l-17 -18v105v1l22 -3l28 18l28 -9q13 8 29 6q7 -1 15 -3l22 14q5 -3 9 -5q9 -5 13 -4q1 0 4.5 4l7 8t7 7t5.5 2q2 -2 7 -3t11 -3q7 -2 15 -4l20 16l27 -12l7 -34v0z" />
    <glyph glyph-name="four" unicode="4" horiz-adv-x="368" 
d="M360 201v-78l-3 -3l-24 7q-3 -3 -6 -5q-2 -2 -5 -3.5t-4 -1.5q-2 -1 -5.5 -0.5t-8.5 1.5q2 -4 1 -6q-2 -2 -4.5 -7t-4.5 -10q-3 -6 -5 -13l11 -21l-12 -21l10 -14l-1 -14l-89 -22l6 28l-13 17q3 5 6 9q2 4 4 6.5t1 4.5q-2 3 -6 15.5t-5 15.5q-1 2 2 9.5t6 12.5l-3 -1
l-17 10q-5 -4 -9 -8q-9 -7 -10 -7q-4 0 -16 5l-14 6q-6 -4 -11.5 -3t-10.5 3q-5 3 -11 7l-13 -9l-35 5l-17 12l-40 -3l-5 32l26 24l-2 34l10 18l-7 21l36 18l-12 30l29 22l-16 26l28 28l-11 25q6 5 10 9t7.5 7t3.5 5v13.5t2 14.5q1 1 3.5 2t4.5 3q3 2 6 3q-1 8 -1 15v11t1 7
q1 1 4.5 5t8.5 9t12 13q-3 4 -5 8q-4 8 -3 10l3.5 3.5t5.5 6.5q4 4 7 9v25l87 -43l21 -30l54 7l-7 -24q5 -11 1 -25l-4 -14l13 -18l-13 -32q3 -7 7 -12q2 -5 4.5 -9.5t1.5 -5.5q-2 -2 -7.5 -13t-5.5 -13q0 -4 5 -14q2 -5 5 -12l-13 -28l12 -26l-14 -29l10 -27l-3 -8
q10 0 12 -2q0 -1 3 -1h6q4 0 9 1l21 9zM202 188l2 1l-4 6l9 18l-10 29l16 14l-14 19l14 23l-11 33l16 25q-6 2 -10 6q-4 2 -7 5t-3 5q-1 1 1 7t4 14q3 9 6 19l-13 7q0 -5 0.5 -12.5t0.5 -9.5q0 -1 -3 -4l-6 -6q-4 -4 -8 -9q1 -5 3 -9q1 -4 2 -7t0 -5t-4.5 -4t-7.5 -5
q-4 -4 -10 -7q1 -6 3 -10l2 -8t0 -5t-11 -5l-10 -4q2 -3 5 -6q5 -5 5 -9q-1 -3 -11.5 -10t-11.5 -9t5 -8.5t5 -8.5t-4 -4t-7 -5q-4 -4 -10 -7q4 -3 7 -6q6 -6 6 -8q-2 -4 -8 -10l-8 -8l2 -18l26 4l18 -10l14 18z" />
    <glyph glyph-name="five" unicode="5" horiz-adv-x="303" 
d="M281 494q-7 3 -13 5q-5 2 -11 1.5t-11 -5.5l-26 9l-21 -16l-27 13l-16 -17l-24 4l-12 -20l18 -19l-18 -20l3 -16l18 -7l17 10l14 -14l22 7l10 -18l25 11l6 -30l18 2l12 -20q4 -3 8 -7q3 -3 5.5 -6t3.5 -4q1 -3 -5.5 -13t-7.5 -13q-1 -2 6 -8t8 -9q0 -2 -2 -5t-4 -7
q-3 -4 -7 -9l5 -15q3 -14 5 -17q0 -4 -8 -10q-4 -3 -9 -6l7 -27l-22 -20l4 -12q2 -5 3.5 -9t1.5 -5q0 -2 -4 -4.5t-8.5 -5t-9.5 -5.5t-6 -4q-4 -2 -2 -13t1 -13t-4.5 -5t-7.5 -6l-10 -8l-5 -27l-28 -11l-6 -16q-2 -6 -4.5 -11t-4.5 -6t-5.5 -1t-8.5 -1l-12 -2l-18 -23l-28 7
l-23 -21l-16 13l-23 -12l-4 84l19 -12l12 21l20 -11l11 22q5 -2 9 -3q8 -2 10 1q1 1 2 5l2 8t1 10h26l6 35l20 4q1 8 3 15q2 6 4.5 12.5t7.5 10.5l-1 35l20 14l-12 21l12 25l-20 15v25l-17 -10l-21 9l-19 -20l-20 8l-7 -19l-25 -1l-7 -23l-26 4v19l-6 22l15 18l-12 24l6 12
q2 5 4 9.5t3 6.5q0 3 -5 13q-3 5 -5 11l10 31l-15 18q3 8 5 14q2 5 3 10.5t1 7.5l-3 6l-4 8q-3 4 -7 10l15 29l-16 18l11 22l16 -14l11 21q7 -3 13 -7q5 -3 9 -5.5t6 -2.5q1 -1 7 7q2 4 5 8q6 -4 11 -7q10 -7 15 -7q2 0 6 2.5t9 5.5q5 4 12 9l32 -10l24 17l30 -7l29 15
l30 -13z" />
    <glyph glyph-name="six" unicode="6" horiz-adv-x="329" 
d="M322 127q-5 -7 -9 -15q-4 -7 -8.5 -14.5t-8.5 -13.5q-1 -3 4 -10q3 -4 6 -7l-23 -20q-2 -7 -3 -11l-4 -10q-2 0 -6.5 -2t-9.5 -4q-6 -3 -14 -5l-10 -20h-13q-5 0 -10 -0.5t-6 -0.5q-4 -2 -11 -9q-4 -4 -8 -7l-25 11l-29 -16l-9 17h-20l-3 24l-30 3l4 21l-24 2l-3 36h-10
q-4 0 -8 1t-5 3t0.5 6t3.5 9t5 12l-25 19l7 29l-15 26l25 20l-8 42q5 7 9 13q3 5 6 9t1 6q-3 1 -3 14v13l17 12l-8 31l20 13v30l17 15l-4 31l15 11l-11 30l18 18l2 10q0 5 -0.5 9t-4.5 9q4 3 8 7q3 4 5.5 9.5t4.5 15.5q6 3 10 7q3 4 5 9.5t0 15.5l14 18q33 -8 59 -16
q21 -7 37 -13.5t11 -10.5q-1 -6 -4 -10q-2 -4 -5 -8t-7 -6l5 -25l-15 -8l2 -24l-19 -6v-20l-10 -2q-9 -2 -9 -5q0 -2 0.5 -5.5t1.5 -8.5t3 -11l-12 -8q-5 -3 -8.5 -6.5t-2.5 -5.5q0 -2 1.5 -5t3.5 -5q2 -4 5 -6l-18 -20q2 -7 2 -13q0 -5 -1 -11.5t-6 -11.5l9 -15l18 10l22 2
l1 -24l21 16q5 -6 9 -10t6.5 -7t4.5 -5t11 1q4 2 9 4q2 -9 5 -17q2 -7 3.5 -12.5t2.5 -6.5q0 -3 7 -3h7l6 -35l19 -8l-2 -14q-1 -5 -1.5 -10t-0.5 -7q0 -3 5 -10l6 -8l-6 -12q-2 -5 -4.5 -9t-3.5 -5q-2 -4 6 -10q4 -4 8 -6zM226 150q0 4 5 12l5 10q-7 0 -12 1q-11 2 -11 6
q0 2 -0.5 7.5t-1.5 11.5q-1 7 -1 15l-26 2l-16 17l-25 -14l-18 8l-17 -32q-6 -4 -5.5 -10t3.5 -13q4 -8 10 -17l-10 -22l22 -16l-12 -24l32 -1l4 -20l26 -6l8 19l29 7l-3 22l20 14q-2 6 -3 10q-2 4 -2.5 7.5t-0.5 5.5z" />
    <glyph glyph-name="seven" unicode="7" horiz-adv-x="332" 
d="M6 548q10 -3 19 -6q8 -2 13.5 -3.5t5.5 0.5q-1 1 2 5l6 8l8 10l32 -8l27 15l27 -7l18 19l28 -10l26 16l14 -12l27 21l19 -13l17 14l24 -8l15 1l-1 -40l-16 -13l3 -27q-3 -5 -6 -9l-4 -6t-3 -3t-2 -6t-1.5 -12.5t-1.5 -12.5t-2 -6q-4 -2 -8 -6q-3 -3 -6 -5v-25l-18 -10
q1 -7 2 -13q2 -12 -1 -15q-1 -1 -4 -4.5t-6 -7.5q-4 -5 -9 -11v-31l-15 -18l4 -29l-15 -20q1 -5 2 -9t1.5 -7.5t-0.5 -4.5l-15 -15v-14q0 -5 -0.5 -9.5t-1.5 -4.5q-3 -1 -8 -10q-3 -4 -5 -10l6 -18l-22 -22q2 -7 3 -11q2 -10 0 -12q-2 -1 -5 -4l-7 -7t-10 -9q3 -4 5 -8
q4 -7 2 -9q-2 -1 -4.5 -3.5t-5.5 -4.5q-4 -3 -7 -6l4 -20l-17 -12l-2 -22l-14 -9q2 -5 3 -8.5t1 -7.5v-8l-83 20l16 24l-7 26l17 19v33q0 3 5 8q3 3 6 5l-1 29l19 9v31l7 12l1 30l14 6l12 22l-8 25l16 13v32l19 13l-6 25l16 13q-2 7 -3 13q-1 5 -1.5 9t-0.5 6t7 6l8 4l-9 21
l16 12l-1 22l11 17l-29 -11l-16 11l-13 -16l-13 8l-4 -8q-4 -8 -7 -8q-5 0 -9 3l-6 4q-3 -4 -7 -7q-7 -7 -10 -7q-2 0 -6.5 4.5t-6.5 4.5t-7.5 -8.5t-7.5 -7.5q-5 5 -10 3.5t-10 -3.5l-10 -8z" />
    <glyph glyph-name="eight" unicode="8" horiz-adv-x="354" 
d="M324 145q5 -7 9 -12t6.5 -9t4.5 -5q1 -1 -2.5 -4.5t-8 -7.5l-9 -8t-4.5 -5q-1 -1 -0.5 -6t0.5 -10q0 -7 1 -15q-7 -2 -11 -4q-5 -2 -8 -3t-5 -1q-2 -1 -3 -6t-2 -11t-1.5 -11.5t-0.5 -6.5q-1 -2 -6 -2h-10q-7 0 -15 1l-10 -16q-4 -6 -7 -11.5t-5 -6.5t-6.5 0t-9.5 3
q-6 2 -13 4l-23 -17l-22 15h-32l-12 16l-21 -6q-3 5 -6 9q-5 8 -5 13q0 2 -3.5 2t-8.5 -1l-12 -2l-10 33l-22 8q1 10 1 18v21q-1 2 -6.5 8t-4.5 8q0 1 1.5 6t2.5 11t2 11.5t1 6.5q0 3 -4 10.5t-5 9.5q-1 1 1 5t4 9l6 12l-12 17l23 15l9 10l-4 26l19 6l11 16q-2 2 -3 5
q-2 6 -2 7t-3 3t-7 5t-10 7l2 12q1 5 1.5 8.5t0.5 5.5q0 1 -3.5 1.5t-8.5 0.5h-11q0 8 1 16q1 6 1 12.5t1 8.5q0 2 -8 8q-4 3 -9 5q3 9 6 17q5 16 8 19q1 1 -1.5 3.5l-4.5 4.5q-4 3 -7 6l8 12q3 5 5.5 9t3.5 6q0 2 -4 10l-4 8l10 10q4 4 7 7.5t5 5.5q2 3 2 12v11
q0 1 4.5 3.5t9.5 4.5q6 3 14 5l6 17l31 2l-1 18l33 9l28 -7l22 10l4 -9l22 1v-21l34 -1l4 -22l30 1l-1 -36l25 -3l-1 -43q4 -5 8 -9q3 -4 5 -7t3 -4q0 -4 -7 -13l-8 -10l18 -29l-17 -20l2 -25l-20 -14l2 -24l-22 -14l8 -19q6 -2 11 -4t8 -3.5l5 -2.5q2 -4 0 -15l-2 -12
l21 -8l-7 -40l10 -6q9 -5 11 -10q0 -2 -3 -6.5t-7 -9.5q-4 -6 -11 -13zM137 436l-20 -20q5 -2 9 -4q8 -6 8 -9q-1 -3 -3 -13q-1 -4 -2 -9q8 1 14 1h9.5t4.5 -2q-1 -2 -1.5 -6.5t-1.5 -9.5l-2 -14l21 -1l13 -22l15 26l21 1l-12 29l23 10q-7 6 -11 10t-7 7.5t-2 5.5q1 1 4 3.5
t6.5 5t6 4.5t2.5 4l-4 4t-8 5l-12 6l10 22l-23 5l-12 14l-24 -5l-6 -20l-24 -7zM240 128q1 1 3.5 2.5t5.5 2.5t5 2.5t1 2.5t-5 4.5t-8.5 7.5t-7.5 8t-2 7q2 5 8 14t4 12q-2 2 -6.5 5.5t-9.5 7.5q-6 4 -13 9l-13 -2l-8 19l-20 -8l-25 13l-8 -21l-26 -7l6 -26l-19 -21l22 -25
l-8 -31l12 -8q10 -7 12 -10q0 -2 2 -7l4 -10q3 -6 5 -14l27 11l26 -7q3 8 6 13q2 5 4 8.5t4 4.5q3 1 13.5 0t12.5 3q0 1 -1 7t-2 13t-1.5 12.5t0.5 7.5z" />
    <glyph glyph-name="nine" unicode="9" horiz-adv-x="336" 
d="M314 326q-6 -7 -10 -13q-4 -5 -6 -9.5t0 -5.5t2.5 -5t0.5 -9v-13l-17 -12l2 -28l-19 -13v-30l-17 -15l3 -31l-14 -11l-4 -27l-18 -11q0 -7 -1 -14q-2 -14 -12 -23q0 -6 -2 -11t-4.5 -9.5t-7.5 -8.5q0 -6 -2 -12q-4 -13 -12 -21l-5 -18q-26 6 -44 12q-16 5 -27 11t-5 11
q1 6 4 10q4 10 11 14l-4 24l15 9l-2 24l19 6v19q5 1 9 2q3 1 6 2.5t3 3.5t-0.5 6.5t-0.5 9.5v12q3 2 6 6q5 5 5 10l-5 10q-2 4 -5 7l17 20q-2 7 -2 13q0 5 1 11.5t6 11.5l-8 15l-18 -10l-22 -2l-1 24l-21 -16l-9 9q-4 4 -7 7.5t-5 5.5q-5 2 -11 -1l-8 -4q-2 9 -5 17
q-2 7 -4 12t-2 7q-2 3 -7 3h-7l-6 35l-20 8l2 14l2 10t1 7t-6 10q-3 4 -5 8l6 12l7 14q1 3 -5 9q-4 3 -8 7q5 7 9 15q4 7 8.5 14t8.5 14q2 2 -4 9q-3 4 -6 7l23 21q1 6 3 10q1 4 2 7.5t2 3.5q4 0 16 5q6 3 13 6l11 20h13h9.5t6.5 1t4.5 3.5l5.5 5.5q4 4 8 7l26 -11l29 16
l8 -17h21l2 -24l31 -3l-4 -21l24 -2l3 -36h10q9 0 13 -4q1 -2 -0.5 -6t-3.5 -9q-3 -5 -5 -12l24 -19l-6 -29l15 -26l-26 -20zM218 366q5 2 4 8t-3 12q-3 7 -8 15l8 20l-18 15l10 21l-27 1l-4 18l-22 5l-7 -17l-25 -6l3 -20l-17 -12q1 -5 2 -9t2 -7t1 -5t-1.5 -5t-3.5 -6
l-4 -8q5 -1 9 -2q10 -2 10 -5v-7t1 -10q1 -6 2 -13l22 -3l15 -15l21 13l16 -8z" />
    <glyph glyph-name="colon" unicode=":" horiz-adv-x="203" 
d="M189 200l-13 -53q-5 2 -10 2t-11 -1t-11 -6l-23 10l-21 -16l-19 10l-23 -10l-19 13l-17 -12l-7 70l16 -10l11 20q7 -1 13 -3q5 -2 9.5 -3t6.5 -1q2 -1 6 10q2 4 4 11l33 -9l23 13l19 -13l31 19zM186 43l-13 -53q-5 2 -10 2t-11 -1t-11 -6l-23 10l-21 -16l-19 10l-23 -10
l-19 13l-17 -12l-7 70l16 -10l11 20q7 -1 13 -3q5 -2 9.5 -3t6.5 -1q2 -1 6 10q2 4 4 11l33 -9l23 13l19 -13l31 19z" />
    <glyph glyph-name="semicolon" unicode=";" horiz-adv-x="213" 
d="M200 200l-13 -53q-5 2 -10 2t-11 -1t-11 -6l-23 10l-21 -16l-19 10l-23 -10l-19 13l-17 -12l-7 70l16 -10l11 20q7 -1 13 -3q5 -2 9.5 -3t6.5 -1q2 -1 6 10q2 4 4 11l33 -9l23 13l19 -13l31 19zM51 77l92 20q-2 -7 -1.5 -12.5t2.5 -10.5t5 -11q-7 -4 -8 -10t1 -12
q2 -7 5 -16q-10 -2 -13 -6t-3 -9q0 -6 3 -13l-15 -12l5 -21l-20 -3l3 -22l-23 -1v-22l-18 -2l-46 29l18 13l-6 22l19 21q-5 6 -5 12t2 11q2 6 5 12l-8 17q7 7 7 17q0 4 -1 9z" />
    <glyph glyph-name="less" unicode="&#x3c;" horiz-adv-x="291" 
d="M195 601l85 -63l-22 -12l6 -18l-22 -11q0 -4 1 -7q1 -4 1 -8q-2 -4 -10 -7l-10 -4l2 -17l-19 -8l2 -20q-5 -2 -9 -4q-3 -1 -7 -3q-2 -1 -3 -2t-0.5 -3.5t0.5 -5.5q0 -4 1 -9l-21 -5l3 -21q-6 0 -10 -1q-9 -2 -9 -4q-1 -3 -2 -12t0 -11q0 -1 -3 -3.5t-6 -5.5l-8 -8
q2 -4 3 -8q2 -8 0 -8q-2 -1 -9.5 -4t-7.5 -5t2 -8t0 -7l-2.5 -2.5l-3.5 -3.5q-3 -3 -5 -6q6 -3 11 -7q4 -3 7.5 -6t3.5 -5t0.5 -6t1.5 -9t2 -11l14 -2l2 -21q3 -1 6 -3q5 -3 5 -5q0 -1 2 -9q1 -4 3 -7l15 -8q0 -4 1 -8q1 -3 1 -6.5t1 -4.5q1 -2 8.5 -3.5t6.5 -4.5
q-1 -2 -0.5 -5t0.5 -8v-11l14 -5l-1 -19q4 1 8 1q7 0 8 -1q0 -2 -1 -10.5t0 -10.5t7.5 -3t6.5 -3q1 -2 3 -7t2 -7q0 -1 2 -11q1 -4 3 -9l8 -2l6 -2t3 -2v-6q0 -2 1 -4l-63 -53l-1 16l-18 9l3 19l-18 5l2 18l-18 7l-3 28l-24 15l2 12q2 11 1 10t-5 1t-9 4q-6 3 -13 5v11
q0 10 -1 11q-2 1 -9 3t-9 4q-1 1 -1 5t0.5 8t0.5 7.5t-1 3.5q-2 0 -6.5 3t-9.5 6q-6 4 -13 8q3 3 6 7q6 8 5 8q-1 -1 -6.5 2t-11.5 7l-16 10q3 5 6 9l3.5 7t0.5 3q-2 0 -9 7q-4 3 -7 7l-23 4l2 30h7q6 0 8 3q0 1 0.5 4.5t1.5 8.5t1 11q4 0 8 1q8 2 9 4q0 1 0.5 4.5t0.5 8.5
t1 12l6 4q2 2 4 3.5t3 2.5t1.5 6t1.5 10q1 6 2 13l17 11l4 22q4 0 8 1q6 0 8 2q0 1 0.5 5t1.5 9t1 12l8 2q8 2 8 4q-1 2 -1 9t-1 9q-1 1 1 3.5t4 4.5l6 6l19 7l-8 17l17 5q-1 7 -2 11q-2 10 1 11q3 3 10 6q4 2 9 4l-4 22l18 10z" />
    <glyph glyph-name="equal" unicode="=" horiz-adv-x="227" 
d="M29 180l28 -12l12 26l32 -14l14 24l28 -9q5 5 9 10t6 8q3 4 5 6l22 -16l13 22l15 -93l-27 8l-13 -17l-25 8l-16 -20l-25 6l-19 -15l-21 9l-14 -21l-17 11q-5 -6 -9.5 4.5t-8.5 25.5q-4 18 -8 43q8 -7 14 -1q3 3 5 7zM31 309l28 -12l12 26l32 -14l14 24l28 -9q5 5 9 10
t6 8q3 4 5 6l22 -16l13 22l15 -93l-27 8l-13 -17l-25 8l-16 -20l-25 6l-19 -15l-21 9l-14 -21l-17 11q-5 -6 -9.5 4.5t-8.5 25.5q-4 18 -8 43q8 -7 14 -1q3 3 5 7z" />
    <glyph glyph-name="greater" unicode="&#x3e;" horiz-adv-x="291" 
d="M101 581l18 -10l-4 -22q5 -2 9 -4q8 -4 10 -6q1 -1 0.5 -4t-0.5 -7q-1 -4 -1 -11l17 -5l-8 -17l19 -7l6 -6q2 -2 4 -4.5t1 -3.5q-1 -2 -1 -9t-1 -9q-1 -1 2 -2l6 -2l8 -2q0 -7 1 -12t1 -9t1 -5q0 -2 8 -2q4 -1 8 -1l4 -22l17 -11q1 -7 2 -13q1 -5 1 -10t1 -6q2 -2 8 -6
l6 -4q1 -7 1 -12v-8.5t1 -4.5q0 -2 8 -4q4 -1 9 -1q0 -6 1 -11t1 -8.5t1 -4.5q1 -3 8 -3h7l8 -19l-23 -10l-4 -10q-4 -9 -6 -9t-2 -10v-9l-16 -10q-6 -4 -11.5 -7t-6.5 -2q-1 0 5 -8q3 -4 6 -7q-7 -4 -13 -8l-10 -6t-6 -3t-1 -3.5t0.5 -7.5t0.5 -8t-1 -5q-2 -2 -9 -4t-9 -3
q-1 -1 -1 -11v-11q-8 -2 -13 -5q-5 -2 -9 -4t-5 -1q-2 1 0 -10q1 -5 3 -12l-24 -15l-3 -28l-19 -7l3 -18l-18 -5l3 -19l-18 -9l-2 -16l-62 53v4q0 2 0.5 3t0.5 3t8 4q4 1 9 2q1 5 2 9t2 7t1 4q0 2 2 7t2 7q1 2 7.5 3t7.5 3t0 10.5t-1 10.5q0 1 8 1q4 0 8 -1l-1 19l14 5v24
q-1 3 6.5 4.5t8.5 3.5q0 3 2 11q1 4 1 8l14 8q1 3 3 7q1 3 2 5.5t1 3.5q-1 1 5 5q3 2 6 3l2 21l14 2q1 6 2 11t1.5 9t0.5 6q0 4 11 11q4 4 11 7q-3 3 -5 6l-6 6q-2 1 0 7t2 8t-8 5t-10 4q-1 0 1 8q1 4 3 8q-5 4 -9 8q-8 8 -8 9q1 2 0 11t-2 12q-1 2 -10 4q-4 1 -9 1l2 21
l-20 5q1 5 1 9v9q-1 0 -3.5 1.5t-6.5 3.5t-9 4l2 20l-19 8l2 17l-10 4q-10 4 -10 7q-1 1 1 8q1 3 1 7l-22 11l6 18l-22 12l85 63z" />
    <glyph glyph-name="question" unicode="?" horiz-adv-x="294" 
d="M275 529q0 -1 1.5 -7t3 -12.5t2.5 -12.5t0 -7q-2 -2 -3.5 -4t-3.5 -4l-4 -6l9 -25q-4 -7 -7 -11q-2 -5 -4 -8t-2 -4q0 -2 3.5 -7.5t3.5 -8.5q0 -2 -7.5 -9.5t-6.5 -9.5q0 -3 2 -11l2 -8l-12 -10l-11 -4l-6 -8l-4 -6t-4 -4t-4.5 -1t-5.5 -1q-4 -1 -7 -1l-6 -10
q-2 -4 -5 -7t-4 -3q-2 -1 -7.5 -0.5t-7.5 -0.5t-6.5 -8t-6.5 -9q-2 -1 -4 -1h-1q-1 -3 -3 -7q-4 -8 -6 -10l11 -12l-8 -13l7 -12l-11 -13q3 -2 5 -4q4 -5 3 -6l-5.5 -5.5t-3.5 -5.5t2 -12q1 -4 3 -9q-1 -2 -3 -5q-4 -6 -3 -7v-13q0 -4 1 -10l5 -11l-6 -16l-72 -13l5 22l-4 8
q-4 8 -4 10q-1 1 0 5t3 8t3 10l-9 24l6 15q-2 7 -5 12q-2 5 -4 9t-1 6t5.5 8t3.5 8q-1 1 -2 5t-3 8l-4 10l13 6l-18 27l17 18l19 5l5 15l2 12l13 5l18 6l2 21h11q11 0 13 3q0 1 4 11l4 10l21 11v16l5 16l-9 12q1 5 -7 2l-10 -5q-3 1 -6 1h-5t-4 -1q-2 -1 -5 -5t-8 -6
q-4 -2 -10 0.5t-8 1.5t-8 -7.5t-8 -7.5t-4.5 -1t-5.5 -1q-4 -1 -8 -1l-21 -8q-2 -3 -4 -7q-4 -8 -7 -8q-2 -1 -8 3q-3 2 -6 3q-2 -4 -4 -7t-3.5 -5t-2.5 -3t-5.5 -0.5t-6.5 1.5l-16 98q3 0 11 3q4 2 9 4q3 2 8.5 9.5t7.5 7.5q3 0 12.5 -1.5t12.5 0.5l4 4t6.5 6t6.5 5.5
t4 2.5q2 0 12.5 -3t14.5 0q3 3 9 10.5t9 6.5q3 0 12.5 -2t13.5 0q4 1 11 9t9 7q3 0 12 -3t13 -2q2 0 5 3t6 7q4 4 8 9l10 -5t7.5 -3t5.5 1q1 2 3.5 4.5l4.5 4.5l6 6l21 -28l-6 -18l9 -19q-3 -2 -5 -5q-5 -5 -5 -7zM181 75q-1 0 -4.5 -3.5l-7 -7l-7 -7l-4.5 -4.5
q-2 -2 -5.5 0.5t-8.5 4.5q-5 3 -11 7l-10 -8q-4 -3 -7.5 -6t-4.5 -4q-4 -2 -12 2l-8 4l-18 -16l-32 4l8 -67l23 -7l22 20q9 -3 16 -5q13 -5 18 -5q2 0 9 7l7 7q10 0 18 -1q7 -1 12.5 -1.5t7.5 -0.5q2 -1 6 7q2 4 3 8l28 1l-2 69q-10 0 -17 1t-12 1h-7z" />
    <glyph glyph-name="at" unicode="@" horiz-adv-x="667" 
d="M650 331l-20 -20l9 -25l-10 -8q-4 -3 -6.5 -6t-1.5 -5q2 -4 2 -14v-11l-22 -10l1 -29l-24 -3l-3 -24l-21 -6q-1 -7 -3 -12t-3 -9t-1 -5q-1 -2 -12 -4q-5 -1 -11 -1l-6 -18l-26 4l-16 -10l-23 11q-6 -3 -11 -5t-8.5 -3.5t-5.5 -0.5q-3 0 -7 10q-2 4 -4 9l-20 -12l-13 11
l-20 -12l-14 16l-23 -10l-23 12l-23 -12l-16 20l-25 -1l-4 37l-21 -2q-1 8 -1 14v17q0 2 -2.5 4.5t-4.5 5.5l-6 8l13 25l-9 19l18 22l-6 25l25 14q1 7 2 13q1 5 1 9.5t1 6.5q0 1 5 2t11 2q7 1 15 1v9q0 8 3 10q1 1 5.5 1t9.5 1q6 0 14 1q1 4 3 8q4 8 4 10q0 1 4.5 0.5
t10 -1.5t10 -1.5t5.5 0.5l9 9l7 7l29 -14l6 20l34 -12l17 -19l-16 -18l14 -14l-11 -17l10 -20l-17 -15l7 -23l-16 -13l11 -19l-17 -23q5 -3 9 -6q8 -5 11 -5q1 0 3 -3t4.5 -7.5t5 -8.5t3.5 -4t5 2t8 4.5t7.5 5.5t3.5 4q0 3 7 -3.5t9 -5.5q1 0 3.5 4t4.5 9l6 14q2 -1 5 -1
q6 0 7 1t2.5 5t3.5 9t5 12q3 2 7 5q8 6 9 7t1 5v9v11q3 2 7 5q3 2 5.5 3.5t3.5 3.5q1 1 0 4t-2 7q-2 4 -3 10l6 8q2 3 4.5 5.5t2.5 4.5q0 1 -3 4.5t-6 7.5l-8 10q2 3 5 7l6 9q0 1 -2 5t-5 8t-5.5 8t-2.5 5q0 2 3 7t4 8q0 1 -2.5 4t-6 6l-7 6t-3.5 4q-1 2 1 9q1 3 2 7l-27 9
l-2 15q-9 0 -15 1t-10.5 1.5t-6.5 0.5q-1 0 -5 8q-2 4 -3 9l-32 -9l-17 13l-33 -16q-4 3 -8 7q-3 2 -5.5 4.5t-3.5 2.5q-2 0 -5.5 -3t-7.5 -6l-10 -8l-22 -1l-14 -14l-10 -10t-7 -5q-3 -1 -16.5 -1t-17.5 -1q-5 -2 -13 -14q-4 -6 -9 -14l-21 -1q-5 -9 -9 -16q-4 -6 -7 -11
t-5 -5q-2 -1 -5.5 -2.5t-8.5 -3.5q-5 -3 -12 -5l-7 -31l-21 -19q1 -8 1 -14v-10t-1 -6q-1 -2 -4.5 -4.5t-7.5 -4.5l-10 -6l2 -32l-13 -13l14 -21q-3 -4 -5 -8q-2 -3 -3 -6.5t0 -4.5t3 -3.5t5 -5.5q3 -4 7 -8l-9 -19l20 -16l-7 -21l19 -10q0 -5 1 -9l2 -6t3 -3q2 -1 4.5 -1
t6.5 -1t9 -2l6 -19q7 0 13 -1q5 -1 9.5 -1.5t5.5 -1.5q2 -2 3 -11.5t3 -10.5t11 -1.5t12 0.5q4 1 6.5 -8.5t4.5 -8.5q2 0 5.5 2t7.5 4q4 3 10 5l6 -15l17 9q7 1 13 2q13 2 15 3q1 1 3.5 -1t4.5 -4q3 -3 5 -7l26 13l9 -11l18 8l19 -61q-3 0 -7 1q-8 2 -9 3q-2 2 -6 -5t-6 -6
h-5.5h-10h-9.5h-5q-2 0 -7.5 -7t-8.5 -6l-21 7l-10 -14l-26 10q-6 -3 -11 -5t-8.5 -3.5t-4.5 -0.5q-2 1 -7.5 6.5t-6.5 7.5q-2 2 -12 -3l-12 -6q-2 5 -4 9q-3 6 -6 9q-1 0 -6.5 -1t-11.5 -2.5t-11.5 -3t-6.5 -1.5q-2 0 -3.5 4.5t-3 10.5t-3 11t-2.5 5q-1 1 -5.5 0.5
t-9.5 -1.5l-14 -2q-3 5 -6 9q-5 8 -5 11q-1 2 -14 6q-6 2 -14 3v33l-26 11l3 28l-23 5q1 7 2 13q1 5 1.5 9.5t0.5 6.5q-1 2 -9.5 6t-8.5 6q0 1 1 5.5t2.5 10t3 10t1.5 5.5l-10 4q-4 1 -10 3l7 27l-15 19l6 16q2 6 4.5 11l3.5 7q1 1 -4 8q-3 3 -6 7q6 7 10 13q4 5 7.5 9.5
t5.5 6.5q1 3 -4 8l-6 6q7 8 11 14q8 12 11 17q0 1 -2 4.5t-4 7.5t-4 7.5t-1 5.5q0 2 5 4t11 4q7 3 15 6q0 8 1 14q0 13 2 15q1 1 7 2.5t13 3.5t12.5 4t5.5 3q1 3 2.5 15t4.5 14q1 1 7.5 3.5t14.5 5.5t14.5 6t8.5 5q3 4 3 12v8h13q12 0 15 3q1 1 3.5 5.5l5 9t4.5 8t4 3.5
q1 0 6.5 1t11.5 2t11 2t6 2t1.5 4t1.5 5q1 3 1 6h14h10.5t7.5 1q5 2 9 9t6 8q1 1 6 0.5t11 -0.5q7 -1 15 -1l12 18l33 -5l15 11l19 -8l18 15l6 -13l20 9l4 -10q4 -10 7 -10t13 5l12 6l7 -19q9 0 16 1q6 1 11 1.5t7 0.5q3 0 2 -10t2 -10q1 0 6.5 -0.5t11.5 -0.5h16l1 -19
l27 -11l-2 -17l27 -13q-3 -8 -5 -14q-2 -5 -3 -9.5t1 -3.5q1 0 5.5 -1t9.5 -3q6 -2 13 -5q-2 -7 -3 -11q-2 -11 -1 -11t3.5 -3.5t4.5 -7.5l6 -10l-12 -20l16 -25l-18 -23zM345 276l15 12l-5 26l-16 12l-10 -17l-23 -1l-3 -22l-18 -15l8 -23l-3 -21l25 -10l14 -13l15 16
q-4 6 -7 10q-2 4 -4 7t0 4q1 1 4.5 3.5t7.5 5.5q4 4 9 8z" />
    <glyph glyph-name="A" unicode="A" horiz-adv-x="321" 
d="M313 25l-82 -24l-6 32q2 6 3 12q2 13 -5 24q-2 3 3 14t5 15q0 2 -1 3l-26 2l-23 -14l-26 12l-7 -30q-7 -1 -14 -4q-6 -2 -13 -5t-15 -5q0 -11 -6 -21q1 -13 1 -24q0 -10 -0.5 -19.5t-3.5 -14.5l8 -27l-100 2l15 22q-5 11 -7 22q-2 9 -1 18.5t8 15.5l-15 22l24 15l-17 36
l24 22l-16 51l17 19l-10 29l14 24l-8 41l22 17l-5 28l17 24l-14 35q7 6 13 10q5 4 9 8t5 6t-0.5 8t-3.5 12l-6 16l14 12q5 5 9.5 9t5.5 6t0 5t-3 6l-4 8l10 8q4 3 7.5 6t4.5 5t0 7.5t-3 10.5q-2 6 -5 14q8 5 14 11q5 5 8 11t1 14l25 19l9 18l23 -8l-4 -33l29 -18l-2 -18
q-1 -8 -1.5 -16.5t-1.5 -16.5q8 -7 15 -13q6 -5 10.5 -10t6.5 -7t-0.5 -5.5t-4.5 -6.5q-4 -4 -7 -8l19 -26l-5 -26q6 -8 11 -14q4 -5 7.5 -10t3.5 -7q0 -3 -1 -10.5t1 -11.5q1 -4 10.5 -12t11.5 -10q1 -1 -0.5 -4.5t-4 -7l-5 -7t-2.5 -5.5t3 -5.5t7 -8.5t10 -11
q-5 -5 -7 -12q-2 -6 0.5 -14t12.5 -16q2 -7 3 -13q2 -13 -7 -19q-6 -4 -6 -9.5t2 -11.5q3 -7 8 -14q-3 -6 -6 -11q-2 -5 -3.5 -9t-0.5 -6q0 -2 3 -7t7 -10l10 -14l-6 -10q-2 -4 -3.5 -8t0.5 -6q4 -6 7 -17q2 -6 4 -13l-11 -21zM187 167l14 5q1 5 2 17.5t0 16.5
q-1 2 -3.5 5.5t-4.5 7.5l-6 10l10 32l-12 24q1 7 0 14q-2 14 -12 22l-1 26l-17 17q-2 -7 -5 -13q-2 -5 -5 -11.5t-7 -11.5q0 -9 -1 -19q-1 -8 -3 -17.5t-7 -16.5l2 -44l-14 -19l9 -27l-16 -25l1 -3q12 5 26 1l31 19z" />
    <glyph glyph-name="B" unicode="B" horiz-adv-x="352" 
d="M317 292q-2 -2 0 -5.5t5 -8.5q4 -5 8 -11l-12 -17q0 -8 2 -20t-4 -18q-12 -11 -11.5 -25.5t-2.5 -18.5q-14 -16 -13 -29.5t0 -17.5q-2 -4 -12 -8q-4 -3 -10 -4q1 -7 1 -12v-8.5t-1 -5.5q-3 -4 -13 -6l-10 -2q0 -6 -1 -11t-1.5 -9t-1.5 -6q-2 -2 -5.5 -2.5t-8.5 -1.5
t-11 -1l-3 -19l-29 3l-2 -23l-22 1q-6 -11 -14 -13q-4 -2 -8 -1q-4 -5 -8.5 -8.5t-9.5 -5.5l-68 -3l3 27l-12 20q3 6 5 13q2 6 1.5 13.5t-4.5 15.5q2 6 4 11t3 8.5t2 5.5q0 2 -2.5 5t-5.5 7q-4 4 -9 10q2 6 4 11t3.5 9t1.5 6t-2.5 6t-5.5 9q-4 5 -7 11l15 29l-15 21l12 32
q-4 8 -8 15q-3 6 -6.5 11t-4.5 7q-2 2 0 7t5 11l8 16l-14 26l13 33l-19 35q2 7 5 13q2 5 3.5 10t1.5 7t-2 4.5t-4 6.5q-3 4 -6 9l12 23q-4 7 -8 13q-7 12 -11 16q-2 2 -2 5.5v7.5t1 9l-4 19h30q2 0 12 -2l10 -2q3 5 7 9q8 8 12 7t13 -2.5t12 -0.5t12.5 9.5t14.5 9.5
q5 2 12.5 -1.5t11.5 -5.5q2 -1 4.5 2t6.5 7l9 9l25 -12l25 16l24 -16l13 18q14 1 25 3q10 2 18.5 2.5t10.5 0.5l6 -3t9 -4q5 -3 11 -5l-6 -18q4 -3 8 -7q3 -3 5 -6t3 -5q2 -3 -4 -10.5t-6 -11.5v-26q-2 -2 -4 -5q-3 -5 -5 -13l-15 -10l4 -24l-23 -6l-3 -20l-16 -5l-3 -16
l-17 -10q9 -5 14 -7t17 -7l8 2q6 -2 8 -5q0 -2 3 -5t7 -6q4 -4 10 -7q-1 -5 -2 -9q-2 -10 -2 -13q-1 -2 0.5 -5.5t3.5 -7.5l4 -8t2 -5q2 -4 -3 -10t-7 -10zM115 448l6 -10q5 -10 2 -21l5 -28q7 5 13 11q5 5 10.5 11t10.5 12q5 -2 10 -3t9.5 0t7.5 6q5 4 9 8t7.5 8.5
t7.5 11.5l6 10q5 11 4 22l-20 -3q-6 0 -13 -2q-6 -2 -13 -4.5t-12 -7.5l-20 11l-22 -14zM221 247l12 16q-3 2 -6 5q-5 5 -5 9q0 3 3 9q2 4 4 7q-3 1 -6 4q-2 2 -5 4t-4 4q-6 7 -14 9q-4 1 -9 0q-4 -4 -7.5 -4.5t-7.5 -0.5t-9 2l-10 -17q-5 2 -9.5 2h-7.5q-4 0 -7 -1l-9 -14
l10 -22q-3 -5 -3.5 -10.5t0.5 -9.5q1 -5 3 -9l-9 -17q3 -3 5 -7q4 -8 4 -10q-1 -2 -1.5 -4.5t-2.5 -5.5q-2 -4 -4 -7q1 -2 3 -5q4 -6 4 -8t-1.5 -5.5t-3.5 -7.5t-4 -9l7 -19l-10 -16q2 -6 2.5 -11t0.5 -10t-1 -9l2 -14l14 16q4 1 7.5 5.5t6 9.5t4 8.5t2.5 3.5q1 -1 3.5 -0.5
t4.5 0.5h6l7 22q4 2 5.5 7t3.5 10q1 6 2 13l18 6v9q0 10 1 12q4 4 5 9t0 10t-3 11l17 13z" />
    <glyph glyph-name="C" unicode="C" horiz-adv-x="311" 
d="M286 295q-6 -2 -11 -5q-11 -6 -14 -10l-72 -17l8 21l-5 5q-6 6 -7 6q-2 0 2.5 8.5t6.5 11.5q1 2 -1.5 4.5l-4.5 4.5q-4 3 -7 6q3 4 5 8q2 3 3 6t2 4q0 3 -3 11q-2 4 -3 9l7 21l-9 15q1 3 3 7q4 8 6 10q3 3 -3 11l-6 8l11 16q-3 5 -6 9q-2 4 -3.5 8.5t0.5 9.5l-25 -2
l-25 -10q-1 -3 -1 -6q-1 -2 -1 -4.5v-3.5q-1 -2 -2 -3.5t-3 -3.5q-2 -3 -5 -5l5 -20q-3 -2 -5 -5q-5 -5 -5 -7q0 -5 3 -12q2 -4 4 -9l-9 -20l12 -24l-11 -12l8 -25l-5 -25l9 -18l-7 -20l12 -23l-4 -20l13 -21l-5 -19l20 -16l-2 -17l18 -23l4 -10q4 -9 7 -9q1 0 4.5 2.5
t6.5 5.5l8 8l17 -4l14 16l28 2l16 14l24 -70l-15 -22l-28 -8l-20 -22l-28 5l-6 -12q-2 -5 -4.5 -8.5t-2.5 -1.5q0 1 -3.5 2t-8.5 2t-12 1l-18 -24l-18 18q-5 -1 -9 -2q-8 -2 -10 0q-2 1 -2 4t-1 7t-1 9q-4 1 -8 1h-6.5t-4.5 1q-2 0 -1 5t3 10l4 14l-10 4q-10 4 -10 6
q-1 1 -1 6v10.5t0.5 10.5t0.5 7q1 2 -10 6t-13 6q-1 1 0 6t2.5 11t3.5 11.5t2 7.5q0 1 -8 5q-4 1 -9 3q2 8 3 15q1 6 1.5 10.5t1.5 6.5q0 1 -3 3t-7 4.5t-7.5 4.5t-4.5 4q0 2 2 8t4.5 12.5t5 12.5t2.5 7t-3 2t-6.5 1.5l-7 1t-3.5 1.5t1 7t3 13t4 13t3 7t-2 2.5t-7 2.5t-7 2
t-3 2t1.5 7t3.5 12.5t4 11.5t3 6t-1.5 2.5t-5.5 3t-5 3t-2 3.5q0 1 -0.5 8.5t-2.5 15.5q-2 10 -3 21l14 36l-11 18l11 26l-4 12q-2 5 -3.5 9t-2.5 6q-1 1 -1.5 6t-0.5 11t0.5 11t1.5 6q1 2 2 7t3 11l4 16l23 -4l19 21q7 -1 12 -3t9 -3t6 0q3 1 12.5 7.5t11.5 7.5q1 0 5.5 -1
t10 -2.5t10 -3.5t5.5 -2q1 -1 5.5 1.5t9.5 5.5q6 4 13 8q8 -2 15 -4q6 -2 11.5 -3.5t7.5 -1.5q1 0 6 2t10.5 5t10.5 5.5t7 2.5q3 0 14 -7q5 -4 11 -8q5 -4 9 -7q3 -3 5.5 -5t3.5 -4q0 -2 -1.5 -5l-3.5 -7t-4 -9q4 -5 8 -9q3 -4 5.5 -7t3.5 -5q1 -5 -6 -12q-4 -4 -8 -7
q3 -3 6 -7q2 -3 4.5 -5.5t3.5 -4.5t-6 -11.5t-8 -12.5q-1 -1 1 -5.5t5 -9t5.5 -8.5t3.5 -5q0 -4 -7 -11l-8 -8l7 -30l-13 -20l10 -31l-11 -12l10 -25v0z" />
    <glyph glyph-name="D" unicode="D" horiz-adv-x="337" 
d="M326 518q-3 -8 -4 -15.5t-1 -13.5q0 -7 2 -13l-13 -29q1 -9 1 -16v-11.5t-1 -7.5t-4 -7.5t-6 -11.5l-8 -16q-1 -10 -2 -19q-1 -8 -1.5 -14t-1.5 -8t-6 -8.5t-10 -14.5l-14 -20l4 -35l-22 -24q3 -15 -5 -26q-4 -5 -9 -10l-4 -30l-29 -29q1 -9 -3.5 -17.5t-9.5 -15.5
q-6 -8 -15 -15q2 -6 3 -11t1.5 -9t-1.5 -6t-5.5 -5t-8.5 -7t-12 -9l-3 -22l-22 -11l-11 -23l-36 -13l-17 10l-4 37q2 6 0 12.5t-5 11.5q-4 6 -9 13l17 46l-13 26l11 24l-15 40l14 58l-14 24l9 39l-18 28l11 24l-4 14q-3 10 -3 17q0 2 1 6t3 9t5 11l-20 29l15 28l-13 28
q2 6 2 13.5t-2 14.5q-2 8 -5 17l52 6q8 1 13.5 3.5t10.5 5.5q5 4 9 7l28 -11l28 16q6 -2 10 -3l8 -2t6 0l14 7q5 3 11 6l34 -6l25 14l26 -8l22 10l18 -23zM212 467q1 7 1 11t-1.5 6.5t-6.5 -0.5q-3 -1 -7 -2q-3 -2 -6.5 -3.5t-7.5 -5.5l-17 6l-15 -8l-15 11l-3 -14l-2 -24
l2 -12q0 -5 -0.5 -10.5t-2.5 -10.5l6 -21q-2 -4 -3 -7q-3 -6 -3 -9q0 -4 2 -12q1 -4 3 -8q-1 -3 -3 -6q-4 -6 -3 -9q0 -2 1 -6t2 -9t3 -12q-2 -3 -3 -6q-1 -2 -2 -4.5t-1 -4.5q-1 -3 1 -10.5t3 -10.5q0 -2 -0.5 -5t-2.5 -5l-3 -6q2 -6 2 -12q0 -5 -1 -12t-3 -12l6 -23
l-2 -19q-1 -8 0 -13q0 -5 1 -7.5t3 0.5q0 3 1 7q2 8 7 14q1 4 3 8t3.5 8t5.5 8v17l9 15v17l11 20q0 4 1 9t2 10.5t5 11.5q1 3 -1 13t-3 12q-1 3 5 11t7 11v14v11l14 15l-6 28l12 17z" />
    <glyph glyph-name="E" unicode="E" horiz-adv-x="308" 
d="M301 66l-25 -4l-8 -21q-9 -1 -16 -3q-6 -2 -11 -3t-5 -2q-3 -5 -7 -11l-6 -8l-31 3q-2 -6 -5 -10q-2 -4 -4 -7.5t-3 -5.5q-3 -3 -13 -1q-5 1 -11 2q-11 -8 -25 -10q-7 -1 -13 -1l3 20l-20 12q0 4 -2.5 7.5t-6 7t-6.5 6t-3 4.5v6.5t1 10.5t2 15l-19 19l6 27l-21 18l10 22
l-23 30l8 24l-20 24l13 24l-9 9q-3 4 -5.5 7t-2.5 5t7 13q3 4 7 11l-21 23l11 29l-17 19l17 22l-18 24l18 22l-15 29l10 8q8 7 7 8q-2 0 -4.5 4.5t-5.5 9.5q-4 6 -7 14l20 11l-15 37l38 -7l21 22l24 -15l25 22l26 -15l22 20l19 -12l26 16l19 -15l19 15q8 -9 19 -7q5 1 10 3
l-2 -100q-5 5 -9 5t-8 -2t-8 -5l-29 9l-15 -16l-23 11l-9 -17l-27 9q-5 -5 -10 -6t-10 -1t-11 1l1 -20l-14 -14q4 -5 4.5 -12t-1.5 -13q-2 -7 -6 -15l10 -19l32 -8l20 22l24 -14l16 16l19 -11l15 18l10 -7l8 -83h-21l-6 -16l-26 7l-12 -17l-25 8l-10 -14l-20 6q-3 -7 -6 -11
q-6 -11 -9 -11q-2 0 -4 0.5t-6 0.5q-1 -3 -1 -6q0 -2 -1 -3q6 -12 6 -27v-15q3 -2 7 -5q8 -6 8 -8t-0.5 -7.5t-1.5 -11.5q-1 -7 -2 -15l16 -10l2 -24q8 -12 11 -24q2 -6 3 -13l18 -2q4 -3 8 -1t9 5l10 10l15 -4l20 16l17 -9l15 17z" />
    <glyph glyph-name="F" unicode="F" horiz-adv-x="297" 
d="M265 356l9 -96l-15 2l-8 -11h-19l-10 -8q-9 -7 -13 -7q-2 -1 -5.5 0.5t-6.5 3.5q-4 2 -8 5l-15 -11l-17 6q-2 -3 -5 -7q-6 -8 -7 -7h-5t-7 1q2 -2 9.5 -8.5t6.5 -8.5q-2 -2 -3.5 -5.5t-3.5 -7.5q-3 -4 -5 -10q3 -4 6 -7q6 -8 5 -9q-1 -2 -2.5 -6t-3.5 -9l-4 -12l11 -14
l-14 -26l4 -6q2 -2 2.5 -4.5t1.5 -4.5q0 -2 -3 -10t-4 -12t4.5 -10.5t4.5 -9.5q-1 -2 -4.5 -7.5t-4.5 -7.5q0 -2 0.5 -5.5t2.5 -7.5q1 -4 3 -9l1 -34l-76 -8l7 21l-15 13l5 17l-15 23l14 15l-14 39l7 25l-13 31l8 16l-6 16q-2 6 -4 11.5t-2 7.5q-1 1 1 6t5 10l8 14l-17 21
l10 23l-22 25l13 32l-14 33l17 29l-18 23l18 26l-21 17l18 22l-24 36l-9 40l44 1l25 20l50 -5l26 12l31 -8l24 16l27 -6l20 15l18 -16l15 11l2 -101l-17 1l-14 -15l-28 4q-11 -12 -23.5 -12t-15.5 1q-3 0 -6 -8t-8 -7q-2 1 -6.5 2t-9.5 2l-12 2l-4 -25q-2 -5 -0.5 -10
t3.5 -10t5 -11l-10 -24l6 -23l-10 -25l7 -18l-2 -7l9 -2l17 16l13 -10l20 18l18 -7l17 15l15 -6z" />
    <glyph glyph-name="G" unicode="G" horiz-adv-x="339" 
d="M319 246q-2 -5 -3 -9t-2 -7t-1 -4q-1 -2 3 -12q2 -4 3 -9q-2 -5 -4 -9l-4 -10q0 -2 0.5 -5.5t1.5 -8.5t2 -11l-6 -20l8 -14l-9 -20l4 -18v-22l-12 -12l11 -17l-3 -24l2 -4q1 -2 2 -3.5t1 -3.5t-2.5 -4.5t-4.5 -5.5q-3 -4 -6 -7l5 -18l-73 -8v27l12 20l-21 26l7 14l-8 16
l-21 -9l-9 -17l-21 1l-12 -18l-26 1l-21 13v8v6.5t1 5.5q0 3 -11 2.5t-14 1.5q-2 2 1 12.5t3 13.5q0 1 -3 4t-7 6l-8 6t-4 5q-1 5 3 18.5t6 17.5q0 2 -3 3t-6.5 2l-7 2t-3.5 3t-0.5 7.5t-0.5 11.5v10.5v6.5q-1 3 -9 8.5t-7 10.5q1 2 1.5 8.5t0.5 14t0.5 14t0.5 9.5
q0 5 -9 10t-10 8q0 1 0.5 7t2 12t3 11.5t2.5 7.5q0 1 -3 3t-6.5 4.5t-7 4t-3.5 3.5q0 1 1.5 6.5t3.5 12t3.5 12.5t2.5 8q0 5 -6 13l-6 8l6 16l4 12t3 8t-1.5 5.5t-5.5 7.5q-4 4 -8 9q2 11 5 20q2 8 4 15t3 9q2 3 -4 11q-3 4 -6 7l13 29l-4 23q4 8 8 13q3 5 6.5 8.5t6.5 4.5
q2 0 6 -1t9 -3l10 -5l16 20l25 -10l21 20q7 -2 13 -4q5 -2 10 -3.5t7 -1.5q2 -1 4.5 1.5t5.5 4.5q4 3 8 7q8 -1 14 -3q5 -2 10 -3t7 -2t6 1.5t9 5.5l12 8l23 -13l21 10l23 -14l12 -28l-11 -18q3 -7 7 -12q3 -5 5 -9l3 -6q0 -2 -2 -5t-4 -7q-3 -4 -7 -9l10 -26l-13 -20
q2 -5 3 -11q1 -5 0.5 -12t-3.5 -14l4 -30l-100 -21l8 25l-13 5l11 17l-6 17l2 10q0 5 -0.5 10.5t-5.5 11.5l-2 26q-5 -2 -9 -2q-10 0 -19 5q-5 -3 -11 -5q-5 -2 -11.5 -2.5t-11.5 3.5l-14 -21q1 -5 0 -10q-2 -11 -10 -18q-2 -1 0 -4t5 -7q4 -4 8 -9l-13 -33q3 -4 5 -8l5 -10
q1 -3 -4.5 -11t-4.5 -13q1 -4 5.5 -13.5t6.5 -12.5q1 -2 -1 -6t-4 -8.5l-4 -9t-2 -5.5q0 -2 2.5 -5t4.5 -7q3 -4 7 -9q-2 -5 -4 -9q-3 -8 -3 -11q0 -2 2.5 -5t5.5 -7l9 -9q-2 -5 -1 -10q0 -10 9 -22l-3 -18l-1 -16q2 -3 6 -7q3 -3 6 -7t7 -8l19 4q5 -1 10 0t10.5 2.5
t11.5 5.5l-1 2l11 13l-9 15l9 11l-6 24l-17 -6l-12 9l-15 -11l-16 85l14 -6l4 12l24 -5l16 16l21 -5l21 12l20 -6l17 14h19l-6 -25l10 -13l-5 -21l5 -21v0z" />
    <glyph glyph-name="H" unicode="H" horiz-adv-x="334" 
d="M142 558l-4 -8q-4 -8 -4 -11t5 -11q2 -4 5 -9l-13 -18l15 -26q-3 -3 -5 -6q-5 -5 -5 -10q0 -4 5 -14t5 -12t-2.5 -4.5t-4.5 -6.5q-3 -4 -6 -9l11 -22l-4 -8q-4 -8 -6 -10q-1 -2 1 -6t5 -9t7 -12q-4 -3 -7 -7q-7 -7 -7 -10q0 -5 3 -14l4 -12l16 8l14 -9l12 17l19 -7l-1 16
l10 18q-2 2 -4 5l-4 4l-3 3q-2 1 0 3.5t4 4.5q3 3 7 6l-8 19q1 6 3 11q3 9 3 15q-2 7 -6 12q-3 4 -5 7l4 12q2 5 3.5 9.5t1.5 6.5q0 3 -4 13l-4 10l12 21l-13 18l10 13l-17 31l2 22l-4 21l130 5l-9 -22l6 -10q2 -4 3.5 -7.5t2.5 -5.5q1 -3 -6.5 -11.5t-7.5 -10.5q0 -5 5 -17
l6 -14l-13 -19l4 -20q2 -8 2.5 -15t0.5 -8q-1 -2 -4 -12t-1 -14q1 -2 2.5 -7t2.5 -11q1 -7 2 -15l-14 -21q2 -10 5 -18q2 -7 3.5 -13t2.5 -7q1 -2 -1.5 -6.5t-4.5 -9.5q-4 -6 -7 -12l8 -45q-3 -6 -5 -11t-3.5 -9t-1.5 -6t1.5 -7t3.5 -10.5t4.5 -10.5t2.5 -6q1 -2 -6 -10
t-7 -10t1 -6.5t2.5 -10t3 -10.5t1.5 -6q0 -2 -5.5 -11.5t-5.5 -13.5t3 -14.5t3 -12.5t-1.5 -5t-3.5 -6q-3 -4 -5 -7l12 -31l-88 -10v9l-6 18q1 6 3 11t2.5 9.5t1.5 6.5q0 5 -5 12q-3 4 -6 6q1 6 3 11t2.5 8.5t1.5 5.5q1 3 -2.5 13t-4.5 13q-1 1 1 5.5t4 9.5q3 5 5 12l-7 21
v24q-6 -3 -11 -6q-10 -5 -13 -8q-3 -1 -10 4q-4 2 -7 5l-27 -19l3 -45l-9 -16l13 -25l-9 -20l11 -32q-3 -6 -5 -11t-3.5 -8.5t-1.5 -4.5q-1 -2 0.5 -5l3.5 -7l5 -10l-12 -18l8 -36l-42 -10q-16 -4 -29.5 -7.5t-14.5 -3.5q-2 -1 1 4.5t4 8.5q1 4 -4.5 9t-8.5 7q-2 1 0 4.5
t5 7.5l6 8t3 6q1 5 -3.5 15.5t-6.5 15.5t3 13.5t6 10.5t-4.5 9t-9.5 9q-2 1 -0.5 4.5t4.5 7.5t5.5 8t2.5 6q0 4 -5 11.5t-7 9.5q-1 1 1 5t5 9.5t6 10t3 6.5q1 4 -7.5 10.5t-13.5 8.5q-2 1 -0.5 6t4.5 11l6 12t3 8q1 5 -7.5 13t-10.5 11t5 13t9 16q1 3 -1 7.5t-5.5 9t-6.5 8
t-3 4.5t1 5t3 8.5t4 8.5l3 6q1 4 -5 15.5t-6 15.5q0 6 5 18l6 14l-22 20l4 14q2 5 3 9.5t1 6.5q0 1 -2.5 4.5t-5.5 8.5q-4 5 -8 11q2 5 4 9q4 10 4 12q0 1 -2.5 4.5t-4.5 8.5q-3 5 -6 11q2 5 4 9q4 9 7 11q1 1 -1.5 5.5t-5.5 9.5q-4 6 -9 13q36 6 64 11q24 5 44.5 8.5
t22.5 3.5z" />
    <glyph glyph-name="I" unicode="I" horiz-adv-x="161" 
d="M142 575q1 -9 0 -18q-1 -8 -3.5 -17t-7.5 -16l12 -26l-13 -26q2 -7 5 -12q2 -5 4 -9.5t3 -6.5q1 -4 -5.5 -14t-6.5 -14q0 -5 5 -15q2 -5 5 -11l-6 -20q-2 -8 -4 -15t-2 -9q0 -7 3 -17q1 -6 3 -13l-13 -27q2 -6 5 -10q2 -4 4 -7.5t3 -5.5q2 -4 -5 -11.5t-7 -11.5
q0 -2 1.5 -7.5t3.5 -11.5t4 -11.5t3 -7.5t-0.5 -6t-3 -9t-3 -9.5t-0.5 -6.5q1 -3 1.5 -9.5t1.5 -14.5l2 -18l-13 -26l6 -32l-5 -22l7 -30l-90 -24l-5 32l2 10q0 5 -0.5 10.5t-2.5 13.5q2 7 5 12q5 10 7 16q0 2 -2.5 5.5t-5.5 6.5l-8 8l14 31l-14 21l12 26l-12 28l12 36
l-12 19l7 36l-14 25q2 8 5 14q2 5 3.5 10t3.5 7t1.5 7t-2.5 10q-2 6 -4 13q1 7 3 13q2 5 3 10.5t3 7.5t0.5 6t-4.5 8l-8 10l5 28l-10 27l12 22l-18 27l130 21v0z" />
    <glyph glyph-name="J" unicode="J" horiz-adv-x="310" 
d="M60 558l22 -5l18 15q10 -1 19 -2q8 -1 13.5 -1h7.5q3 0 11 7.5t13 5.5q2 -2 9 -2.5t15 -1.5q9 -1 19 -1l21 11l16 -11l29 17l23 3l7 -118l-20 10l-14 -15l-18 4l-10 -17q-5 -1 -7 -5.5t-2 -10.5q0 -7 1 -15q-4 -6 -4 -13t1 -12q1 -6 4 -12l-7 -23q1 -3 3 -7q3 -6 3 -11
q0 -2 -2 -6t-4.5 -8.5t-4 -8.5t-0.5 -5q0 -2 2 -6l4 -8l5 -10l-11 -29l11 -21l-16 -34l11 -27l-14 -24q5 -6 5.5 -14t-1.5 -16q-2 -9 -6 -18q3 -5 6 -9q2 -4 4 -7t2 -4q0 -2 -4.5 -12.5t-4.5 -13.5q0 -2 0.5 -7t1.5 -11q1 -7 3 -15l-37 -31l-29 -5l-9 -9q-4 -3 -6.5 -5.5
t-4.5 -2.5t-7.5 2.5t-10.5 5.5q-7 4 -14 9l-29 -13l-18 20l-45 2l23 103l27 -17q3 5 9 3.5t11 -4.5q6 -4 14 -10q6 5 11 6l10 2h10l19 12l-9 36l9 15l-6 16q-2 6 -4 11.5t-2 7.5q0 3 5 13q2 4 5 11q-4 7 -7 13q-2 5 -4.5 9.5t-2.5 6.5q0 1 1.5 5.5t3.5 10t3.5 9.5t0.5 6
q-2 2 -3 7t-3 12t-3 17l9 33l-13 21l10 39q-5 5 -6 12.5t0 13.5q1 7 4 14l-27 -2q-5 2 -10.5 1t-10.5 -3q-6 -3 -12 -8l-19 12l-16 -19q-3 -1 -5 4t-4.5 14t-4.5 20.5t-3 23.5q-4 28 -7 65l27 -9z" />
    <glyph glyph-name="K" unicode="K" 
d="M347 52q3 -2 4 -7.5t-1 -18.5l17 -29l-66 -25l-11 45q-1 4 -4 8q-2 4 -5.5 9.5t-7.5 13.5l2 6q1 2 2 4.5t2 4.5q1 1 -3 6t-9 10.5t-10 10.5t-5 7q-1 2 0 5.5t2 7.5l2 10l-18 24q-1 8 -1 15v11t1 7q0 2 -4.5 5.5t-9.5 8.5l-14 12q1 8 2 15q2 14 3 18q1 2 -4 5.5t-12 8.5
q-8 5 -18 11l4 29l-25 27l9 27l-16 18q-2 -2 -5.5 -11.5t-6.5 -11.5q-2 -2 -5.5 -2t-6.5 1q-7 -12 -5 -15q1 -2 3.5 -6t5.5 -9t5 -9.5t1 -6.5t-2 -6.5t-2 -9.5q-2 -5 -3 -12q4 -9 7 -17q2 -7 4 -12.5t1 -7.5t-2 -7.5t-3 -11.5q-2 -7 -5 -15l6 -14q2 -5 3.5 -9.5t0.5 -6.5
t-3 -6.5t-5 -9.5q-4 -6 -8 -13q5 -7 9 -12q3 -5 5.5 -10t1.5 -7q-2 -6 -7 -16q-3 -5 -6 -11q3 -7 6 -13q2 -5 4 -9.5t2 -6.5q-1 -2 -0.5 -5t0.5 -6v-8l-83 -11l-4 14l7 32l-21 40q3 9 5 16q2 6 3 11t0 5q-2 0 -3.5 5.5t-3.5 12t-3 12.5t-1 8q0 1 1 7t2.5 12.5t2 12t-0.5 6.5
t-4 6t-5.5 11t-4 12t-0.5 8q3 4 8.5 14t3.5 11q-1 0 -3 5.5t-4 12l-4 13t-2 9.5q0 2 1 8t2.5 12.5t2.5 11.5t0 5q-2 0 -4.5 6.5t-5.5 14.5q-4 9 -7 20q4 7 8 13q3 5 5.5 9t0.5 5t-5 7t-5.5 14t-4 15t-0.5 9q2 5 7.5 16t2.5 12q-2 0 -3.5 7t-3.5 15q-2 10 -3 21l7 7l4.5 4.5
t0.5 2.5t-4.5 4.5t-4.5 9.5l-6 14l130 14l-14 -41q3 -8 6 -15q2 -6 3.5 -11t0.5 -6q-1 -2 -2.5 -8t-3 -13.5t-3 -14t-1.5 -7.5t2 -6.5t4 -12.5l8 3v27l36 11l1 23l14 4q5 2 10 3.5t6 3.5q0 1 0.5 6.5t1 10.5t1 9.5t1.5 4.5q2 0 5.5 2.5t8.5 5.5q5 4 11 8l-3 17l13 11
q18 -12 44.5 -29t46.5 -31l-13 -8q0 -6 -1 -10q-2 -9 -3 -9l-14 -7q-5 -3 -12 -7q-2 -7 -3 -13q-1 -5 -2 -9.5t-1 -5.5q-1 -2 -5.5 -4t-10.5 -4l-16 -6l-8 -25l-11 -10q5 -4 15.5 -8.5t10.5 -6.5q0 -3 -5.5 -10.5t-4.5 -12.5q0 -3 3.5 -7t7.5 -8t10 -8q-2 -6 -4 -11
t-3.5 -9.5t-0.5 -6.5q0 -2 3 -5.5t7 -6.5t7.5 -6t4.5 -4q2 -2 -9 -13l-12 -12q9 -9 17 -16q7 -6 13 -11t8 -6q4 -2 1.5 -9.5t-2.5 -11.5t-5.5 -13t-3.5 -13q1 -2 4.5 -7.5t8.5 -10.5q5 -6 11 -14q-1 -7 -3 -12t-3 -9t0 -6q0 -2 3.5 -6.5t7.5 -9.5q4 -6 11 -13q-4 -7 -7 -12
q-2 -5 -4 -8.5t-2 -5.5q0 -1 3.5 -4t8 -6l9 -6t5.5 -4t0 -5t-2.5 -9t-3 -9t0.5 -5z" />
    <glyph glyph-name="L" unicode="L" horiz-adv-x="313" 
d="M109 586l48 -1l-8 -15l14 -16l-20 -14l8 -12q7 -11 10 -11q1 0 -5.5 -6.5l-7.5 -7.5q0 -1 2.5 -3.5t5 -6t5 -6.5t2.5 -4t-3.5 -4.5l-7.5 -7.5t-7.5 -7t-3.5 -4q-1 -2 5 -11t8 -11q1 -1 -1 -4.5t-4 -8t-4 -8t-2 -4.5t3.5 -5t7.5 -8l7.5 -7.5t4.5 -3.5t-1.5 -3t-5.5 -6.5
t-5.5 -6.5t-1.5 -4q0 -2 0.5 -5.5t0.5 -7.5t1 -10q-3 -5 -6 -9q-5 -8 -5 -11q0 -1 2.5 -6t5 -11t5 -11t2.5 -6t-3.5 -4t-7.5 -6t-7.5 -5.5t-3.5 -3.5q-1 -2 7.5 -8.5t10.5 -7.5q2 -2 -5 -9t-7 -12q0 -4 3 -13t4 -11q1 -3 -2.5 -9.5t-3.5 -8.5q0 -1 2 -5t4.5 -8.5t5 -8
t3.5 -4.5t-2 -3.5t-6 -4.5q-4 -4 -9 -7l19 -25l-17 -10l4 -27l19 13l5 -10l14 10l8 -4q3 -2 5.5 -3.5t3.5 -0.5q2 0 8 6q3 3 6 7l18 -10l17 21q4 -1 8 -3q8 -4 8 -5t4.5 2t9.5 6q6 4 14 9l8 -94l-15 10q-2 -4 -5 -8q-6 -8 -8 -8q-3 -2 -12 2q-4 2 -9 4q-5 -6 -9 -10
q-9 -9 -12 -9q-1 0 -5 0.5t-9 1.5t-9 2t-5 1q-1 1 -4 -1.5t-7 -5.5t-7.5 -5.5t-4.5 -2.5q-4 0 -13 3q-5 2 -11 4q-6 -7 -11 -11t-9 -7t-5 -3q-4 0 -13 7q-4 3 -10 7l-9 -18l-50 -8q2 6 4 11q2 4 3 7.5t2 4.5q0 3 -5 8q-3 3 -6 5l6 8q2 3 4 6.5t3 5.5q0 2 -9 9q-4 4 -9 7
l8 10q7 9 9 15q0 2 -3 5l-6 6l-8 6l8 10q3 4 5.5 8t2.5 6q0 3 -5.5 13t-6.5 12q0 1 2 4t5 6.5t5.5 6.5t2.5 4q0 2 -9.5 8.5t-11.5 8.5t4 10.5t7 12.5t-5 14.5t-6 12.5q0 1 2 4t4.5 6.5t4.5 6.5t2 4t-1.5 4l-3.5 7q-3 4 -5 9q2 7 5 13q5 12 5 16q-1 2 -4 5.5t-6 8.5
q-4 5 -9 11q3 6 7 10q2 4 4.5 7.5t2.5 5.5q0 1 -3 4l-6 6q-4 4 -8 7l8 10q3 4 5.5 7t2.5 5t-7 10.5t-9 10.5q0 1 2.5 4.5t6 7.5t6 7.5t2.5 4.5t-3 5.5t-6.5 9t-6.5 8.5t-4 5t-0.5 5t1.5 8.5t1.5 8.5t0.5 5q-2 2 -8 9.5t-6 9.5q0 3 5 11q3 4 6 9l-6 6l-4.5 4.5t-3.5 2.5t5 6
l7 7l-13 18q12 2 23 5q9 2 16.5 3.5t8.5 1.5z" />
    <glyph glyph-name="M" unicode="M" horiz-adv-x="477" 
d="M481 29h-1h1zM460 48q4 -5 8 -9q3 -4 6.5 -7t5.5 -3q-3 0 -18.5 -3t-34 -6t-33.5 -6t-16 -4l-7 30l4 8q4 8 4 12q0 1 -1.5 5t-3 9t-3 9t-1.5 6q-1 1 0 4.5t3 6.5q2 4 3 8q-4 9 -7 16q-2 6 -4.5 11.5t-2.5 7.5q0 1 1 5t3 8.5t4 8.5t2 5q0 2 -2.5 7.5t-5.5 12.5q-4 8 -8 17
q-1 5 -1 9q-1 5 -1 12q0 2 -3 8t-7 12q-4 7 -9 16q1 7 3 13q2 5 2.5 9.5t0.5 6.5q0 1 -1.5 5.5t-3 10t-3 10.5t-2.5 7l-9 10l-4 32l-5 -25l-8 -5l5 -16l-11 -22q-3 -7 -6 -11q-5 -10 -5 -13t4 -13l4 -10q-3 -4 -5 -8q-4 -8 -4 -11t5 -12.5t7 -11.5q1 -3 -5.5 -12.5
t-7.5 -12.5q0 -1 1 -6t2.5 -10.5t2.5 -10.5t1 -6q0 -2 -1.5 -5.5t-3.5 -8.5t-4 -11l12 -25l-10 -10q-9 -9 -9 -12q0 -4 5 -14q2 -5 5 -11q-2 -7 -3 -12t-2 -8.5t0 -5.5t1.5 -5.5t2.5 -8.5q1 -5 3 -11l-13 -15l2 -24l-25 -5v8q0 3 -1 5.5t-2 4.5q-3 3 -6 11q-3 4 -5 10
q2 5 3 10q1 4 1.5 8.5t-0.5 6.5t-3.5 5t-5.5 7q-4 4 -8 9l2 31l-22 13l-4 44q2 7 3 12t1.5 9t-0.5 6q-1 1 -4.5 5.5t-7.5 9.5t-8 9.5t-5 5.5t1 6t5 10.5t5 10t2 6.5t-3 7t-7 10.5t-7 10t-4 6.5t2.5 13.5t1.5 16.5q-2 2 -4 7t-4 10.5t-4 9.5t-3 4q-2 0 0 4t4 9l-14 32l-4 -24
l-12 -7l2 -11l-12 -15l12 -23l-16 -7l-3 -31l5 -23l-10 -12q-9 -11 -9 -14q0 -2 1.5 -6.5t3.5 -9.5q2 -6 5 -12l-16 -27l14 -31q-2 -8 -5 -14l-4 -10t-3 -7t1.5 -6t4.5 -9q3 -5 7 -11l-6 -12q-6 -11 -9 -13q-2 -1 0.5 -4.5t5.5 -8.5l8 -12l-7 -21l8 -19l-99 -14l2 30l13 19
l-11 27l14 14l-24 46l15 27q-3 9 -7 16q-3 6 -5.5 11.5t-2.5 7.5q-1 1 2.5 5t7.5 8l10 10q-7 8 -12 16q-5 6 -8 12t-3 8t11 11q4 4 11 9l-10 36l20 26q-6 9 -10 17q-4 7 -6.5 13t-2.5 8t3 5t7 6.5t8 6.5t5 4q1 2 0 7.5t-3 13.5t-4 19q4 5 8 9q7 9 7 11q-1 2 -1.5 8.5
t-1.5 14.5q-1 9 -3 20l28 22l-3 47l16 15l-11 30l34 23l11 38l24 -8q1 -7 3 -12l4 -10t7 -8q2 -2 4.5 -14t3.5 -16q0 -2 3 -5.5t6 -7.5q4 -4 9 -10q0 -9 1 -16q1 -6 1.5 -12t0.5 -8q0 -4 11 -8q4 -2 11 -4q-1 -8 0 -16q1 -7 3 -14.5t7 -13.5l-4 -26l23 -17l20 23q-3 9 -5 17
q-2 7 -3.5 12.5t-2.5 7.5q-2 1 1 3.5t7 4.5l10 6l-8 35l23 13q-2 9 -3 17q-1 7 -0.5 13.5t3.5 10.5l10 32l21 24l9 -30l24 -1l3 -29l18 -12l-7 -32l38 -12l-8 -34l29 -20l-9 -37l21 -24l-9 -18q-3 -7 -6 -13.5t-3 -8.5q-1 -4 9.5 -10t13.5 -8q1 -1 -0.5 -7t-4 -13t-5 -13.5
t-2.5 -7.5q-1 -2 2.5 -5.5t8.5 -7.5t11 -9l-4 -24q-2 -9 -3 -18t-1 -11q0 -5 6.5 -16t6.5 -15v-7v-11v-11.5t1 -7.5q2 -5 5.5 -11t5.5 -7q1 0 0.5 -4t-2.5 -9.5t-3.5 -10t-1.5 -6.5q0 -3 7.5 -10.5t7.5 -9.5t-1 -7t-3 -10q-2 -6 -4 -13z" />
    <glyph glyph-name="N" unicode="N" horiz-adv-x="324" 
d="M60 565q0 -6 1 -10q0 -4 0.5 -7t0.5 -5t3.5 -2.5t8.5 -0.5h12q0 -8 1 -13t1.5 -9t0.5 -6q0 -3 12.5 -7t16.5 -9q3 -5 0 -12t-2 -12q1 -2 4 -4.5t7 -4.5q4 -3 10 -5q1 -7 3 -12t2.5 -9.5t1.5 -6.5q1 -3 4.5 -5.5t8 -4.5t8.5 -3t5 -1t1 -3.5t1 -9.5t3 -12.5t7 -11.5l10 -28
q3 6 5 11t3 9t2 6q2 4 -3.5 7.5t-1.5 14.5l-2 33l13 20l-13 17q2 5 4 9q4 10 6 13t-6 12t-11 10q-4 1 1 9t6 11q1 2 -0.5 6.5t-3.5 9.5q-3 6 -5 13l6 22l-14 23l131 22l-9 -28l-13 -23q3 -7 7 -11q2 -5 4.5 -8t1.5 -5q-1 -4 -5.5 -11t-6.5 -12t5 -11.5t9 -11.5q1 -4 -3 -18
t1 -28l-7 -28l-7 -30l8 -33l-8 -31l11 -24q-3 -7 -5 -12q-5 -12 -5 -17q0 -7 7 -19q4 -6 8 -13q-3 -8 -5 -15q-2 -6 -3 -11t-1 -7q0 -3 6 -14.5t7 -14.5t-6.5 -14t-8.5 -15q-1 -5 5 -16t7 -14q1 -2 -1 -8t-4 -13t-4 -13.5t-1 -7.5q0 -2 1.5 -7t3.5 -10q2 -6 5 -13
q-2 -8 -4 -13q-4 -13 -3 -15q0 -2 1.5 -6t3.5 -9l4 -12l-9 -20l4 -27l-26 -15l-12 13l-16 21q0 5 1 9q2 10 2 13q0 2 -3 5.5t-6 6.5l-8 8l10 28l-22 23v15q0 6 0.5 11.5t0.5 7.5t-3.5 4t-8.5 4q-5 3 -11 6v12q0 5 0.5 9.5t1.5 6.5q0 2 -11 8q-5 3 -11 6v34q0 2 -3 5.5
t-7 7.5l-9 9q0 7 -2 14q-2 6 -5 13.5t-9 15.5l-13 6l-8 -31l9 -27l-9 -17l12 -28q-2 -7 -4 -11q-3 -9 -5 -13q-1 -2 1 -7l4 -10q3 -6 5 -14l-4 -10q-2 -5 -4 -9l-3 -6q-2 -2 -0.5 -7.5t3.5 -11.5l6 -16l-10 -19l12 -21l-85 -26l1 13q-1 6 -3 10q-4 10 -6 9q-2 0 -0.5 4
t3.5 9l4 10t2 7q0 3 -5.5 10t-9.5 7q-2 0 0 4.5t4.5 10.5t5.5 11.5t3 8.5q0 2 -2.5 7.5t-5.5 10.5q-4 6 -8 13l18 25l-13 17l-8 37l6 14q2 5 4 10.5t2 7.5t-3 5.5t-7 7.5t-9 10l16 27l-16 17l9 28l-15 23l10 28l-16 20l11 26l-15 29l4 10q2 4 3 8t2 6q0 2 -2.5 8t-5.5 13
l-8 18l14 27l-14 21l25 14z" />
    <glyph glyph-name="O" unicode="O" horiz-adv-x="353" 
d="M320 273q1 -1 2.5 -6t2.5 -11t2 -11t2 -7q2 -3 -6 -12.5t-8 -13.5q0 -2 1.5 -7.5t3.5 -11.5t3 -11t1 -7q-1 -3 -8.5 -11.5t-7.5 -13.5q0 -2 1 -7.5t2.5 -11.5t2 -11.5t-0.5 -8.5q-2 -5 -5.5 -12t-13.5 -21q-3 -11 -5 -20q-2 -8 -3.5 -15t-1.5 -8q-1 -2 -4.5 -2.5
t-8.5 -0.5h-13q-7 -5 -12 -9t-8.5 -7.5t-5.5 -4.5q-1 -2 -5.5 -3.5t-10 -3t-10 -1.5t-5.5 1t-6 -1.5t-11.5 -6.5t-12 -7t-7.5 -3q-2 1 -5.5 4t-8.5 7t-11 10q-7 -8 -13 -13q-5 -5 -10 -8t-6 -1q-2 4 -11.5 6.5t-11.5 2.5q-1 1 -4 9t-3 11q0 2 -3.5 4t-8.5 4l-12 6l2 16
q1 6 1.5 11.5t0.5 7.5q0 4 -9.5 8t-11.5 6q-1 1 0.5 6.5t3.5 12t4 12t2 7.5q1 3 -6 10.5t-8 11.5q-1 1 0.5 6t3.5 10q3 6 6 13q-6 8 -10 15q-9 14 -9 18q0 2 2.5 7t5.5 10q4 6 9 14l-18 22q1 7 2 13q1 5 1.5 10.5t1.5 7.5q1 5 -4 17.5t-5 17.5q0 3 1.5 10t4 14.5t4.5 14
t2 8.5q1 4 -8.5 13t-10.5 13q0 2 1.5 8.5t3.5 14.5t3.5 15t1.5 9t-2 7l-4 10q-3 6 -5 13q3 7 6 13q2 5 5 10.5t5 7.5t2 7.5t1 10.5q0 6 1 13q3 3 7 6q6 5 10 6q2 1 5.5 5t7.5 8t9 10l24 -5l17 18q7 -1 13 -1q5 -1 10 -1h7q1 0 5.5 3t9.5 7l12 10q6 -1 11 -2t8.5 -1.5
t5.5 -0.5q2 -1 5.5 1.5t7.5 4.5q4 3 10 7l28 -15l20 9l13 -21l30 6l3 -35l5 -10t3 -7.5t2 -5.5q0 -4 -5 -14q-3 -5 -5 -11q4 -6 8 -11q3 -5 6.5 -8.5t5.5 -3.5t-0.5 -3.5t-6 -9t-7 -10t-3.5 -5.5q-1 -2 2 -6t6 -9q4 -5 8 -11l-14 -36q3 -10 7 -17q3 -7 5.5 -12t2.5 -7
q0 -1 -2.5 -5.5t-6 -9t-6 -9t-2.5 -5.5q0 -3 7 -10.5t7 -11.5t-6 -14.5t-3 -13.5zM236 300q-4 6 -7 11q-7 10 -7 14q0 2 3 8t6 12.5t5 12t1 5.5q-2 0 -4.5 3t-4.5 7q-3 4 -6 9l8 23l-16 18q3 4 5 8q4 8 3 11q-5 5 -5.5 10.5t-0.5 10.5t2 10l-14 5l-28 -1q-5 -5 -10.5 -6
t-10.5 -1t-11 2l-4 -10q-2 -4 -3.5 -8t-1.5 -5q-2 -3 -9 -10t-6 -9q1 -3 3.5 -10t1.5 -12q-1 -3 -2 -7t-3 -9t-5 -11q4 -3 7 -6q6 -6 5 -10q-2 -4 -4.5 -16t-2.5 -15q0 -5 3 -12q2 -4 4 -9q-3 -9 -6 -17q-2 -7 -4 -13t-2 -8q0 -5 5.5 -15t5.5 -12t-2 -7t-4 -11q-3 -7 -5 -15
q3 -3 6 -7l4 -6t3 -4t-0.5 -6t-3.5 -10.5t-3.5 -10.5t-0.5 -7q2 -4 7.5 -11.5t3.5 -10.5t-5.5 -11.5t-1.5 -11.5q1 -1 3 -2.5t5 -3.5t7 -4q-1 -4 -1 -8v-6.5t1 -4.5q1 -2 4 -4l6 -4q4 -2 7 -4l23 2l16 -3l4 30q10 1 17 10q4 4 7 9q6 9 3.5 20t-1.5 14q0 1 2 4.5t4 8.5
q3 5 5 11q-2 6 -5 10q-2 4 -4 7.5t-2 5.5q-1 1 1 4.5t4 8.5q3 5 7 11l-2 34q-5 5 -5.5 11t1.5 11q2 6 5 13z" />
    <glyph glyph-name="P" unicode="P" horiz-adv-x="347" 
d="M338 543l3 -32l-22 -23v-38l-34 -25l-6 -34l-27 -17l-5 -36l-31 -9v-27l-34 -13l-13 -27l-23 -6l4 -27q-6 -6 -8 -14.5t-2 -16.5q0 -10 2 -20q-4 -8 -4.5 -14t-0.5 -11t2 -9l-12 -32l14 -23l-16 -38q5 -9 7 -15.5t2 -10.5t-2 -7l9 -33l-87 -18l-2 4l-10 37l13 42l-15 36
l13 36l-15 38l13 36q-7 10 -11 18q-5 7 -8 13.5t-2 8.5t2.5 7.5t3.5 12.5q2 8 5 17l-18 37l13 51q-6 9 -7 19.5t-1 19.5t1 14.5t0 5.5t-4 4t-6 9.5t-5 11t-1 7.5q2 2 5 7.5t6 10.5l8 14q-8 9 -14 18q-5 7 -8.5 13.5t-1.5 8.5t3 7.5t3 12.5q2 8 3 18l40 -4l36 17l25 -11
l49 23l16 -6q6 -2 12 -3t8 1q1 2 7 6l12 8t11 5.5t6 -0.5t6 -4t10 -3q6 -2 14 -2l33 17l26 -10l21 -26zM217 484l-24 -5l-13 8l-12 -18l-17 5l-25 -9l10 -26q-2 -3 -4 -7q-4 -8 -6 -8t-1 -3t3 -6.5t3.5 -7t1.5 -4.5q0 -2 -1 -7.5t-3 -11.5q-2 -7 -3 -15l4 -24q3 7 7 12
q3 5 7 8.5t9 3.5l8 20q6 1 10 3t7.5 2.5t4.5 1.5q2 2 0 9q-1 4 -2 7l12 9q-2 6 -2 12q0 5 0.5 11t4.5 11z" />
    <glyph glyph-name="Q" unicode="Q" horiz-adv-x="352" 
d="M376 28l-60 -66l-7 16l-23 1l-4 19l-22 5l-3 21q-2 -1 -6 -5t-7.5 -9t-6.5 -9t-4 -4q-2 0 -5 1t-8 3t-11 4l-10 -12q-4 -5 -7.5 -8t-5.5 -1q-3 15 -9 17.5t-12 -1.5t-10 -10.5t-4 -9.5l-27 12l-27 -16q-4 7 -8 13q-3 5 -5.5 9.5t-2.5 6.5q0 4 -10 6l-10 2v39q0 5 -10 7
t-11 4q0 1 0.5 6t2 11.5t3 12t1.5 8.5q1 5 -6 11.5t-7 8.5t2 7t4 11q3 7 7 16q-6 5 -11 10q-5 4 -8.5 8t-2.5 6q0 1 2.5 6.5t4.5 11.5t4 11t1 7q-1 4 -7.5 15.5t-8.5 12.5q0 1 2 5.5t4 10.5l4 12t2 10q-2 8 -9 12.5t-7 7.5t4.5 16t6.5 19q0 8 -5 16q-3 4 -5 8q1 9 3 17
q2 7 2.5 13t1.5 8q0 4 -8 10l-8 6l6 14q2 5 4 10.5t3 7.5q0 7 -3 16q-2 5 -4 11q6 7 10 13q8 12 11 17q0 1 0.5 5t0.5 9v11q5 2 9 4t7 2.5t5 1.5t4 4.5t5 7.5t7 10q7 2 13 3q5 1 9.5 1.5t6.5 1.5q2 0 4 3l4 6q3 4 6 9h29l33 19h21l15 -20q7 4 13 8q5 3 9 5l6 3q3 1 6.5 -6.5
t4.5 -11.5q1 -3 11 -1q4 1 9 3l30 -5q-1 -8 -1 -14q0 -5 -0.5 -10t1.5 -6q3 -2 7 -7t6 -8q1 -4 -2 -13.5t-4 -16.5q-1 -3 1 -6t5 -5l6 -4t3 -3q1 -3 -5 -13.5t-7 -13.5q-1 -2 1.5 -5.5t5.5 -6.5q4 -4 7 -8q-4 -10 -8 -19q-3 -8 -5.5 -14.5t-2.5 -8.5q0 -4 6.5 -10.5
t7.5 -11.5t-5 -17.5t-6 -16.5t7 -16t8 -16q0 -2 -2.5 -6.5t-5.5 -9.5q-4 -6 -9 -13q2 -10 5 -17q2 -7 3.5 -12t2.5 -7q1 -1 -1 -5.5t-4 -9.5q-3 -6 -6 -13l4 -12q2 -5 3.5 -10t1.5 -7t-2 -6t-4 -9q-3 -5 -5 -11l2 -14q1 -6 1.5 -12t0.5 -10l11 -6l-4 -21l18 -6l-2 -18
l20 -14l-6 -22zM185 72l19 13q-1 1 -1 3t-0.5 3t-0.5 3l-5 3l-14 1l-2 18l-14 -2l25 33l16 17q3 1 12.5 2t10.5 7l-4 15l14 21l-15 26l11 27l-5 10q-4 10 -3 15q0 2 1.5 7t3.5 10t5 12l-15 34q5 9 9 15q3 5 6 9.5t1 4.5q-4 0 -9 11l-6 12l5 28l-18 10l4 30l-18 6l-17 -13
l-12 14l-17 -3q0 -1 -3 -4t-7 -6.5l-8 -7t-5 -4.5q-8 -12 -6 -22q1 -4 4 -8l-10 -22l6 -14l-14 -21q5 -6 6 -13.5t0 -13.5q-1 -7 -3 -14q3 -5 6 -9q2 -4 4 -6.5t2 -3.5q-1 -2 -2.5 -6.5l-3.5 -10.5q-3 -7 -6 -15l16 -16q-4 -7 -7 -11q-2 -5 -4 -8t-1 -5q1 -3 4.5 -11.5
t3.5 -10.5t-1 -6t-3 -9l-4 -12q4 -6 7 -10q2 -4 4 -7.5t2 -4.5q-1 -1 -0.5 -3.5t0.5 -4.5v-7l-6 -10q-2 -4 -4 -7t-1 -5q2 -2 9.5 -3.5t6.5 -5.5q-1 -2 -1 -6v-9v-11l16 -3l4 -16z" />
    <glyph glyph-name="R" unicode="R" horiz-adv-x="344" 
d="M353 6q5 -7 -0.5 -14t-15.5 -13q-11 -7 -28 -14l-25 26l1 22l-24 34l4 26l-26 30l3 25l-18 32q-2 5 -5 9q-5 7 -8 11q-2 1 -5 3.5t-7 5.5q-4 4 -9 7l6 32q-5 1 -9 4q-8 4 -8 8q0 2 0.5 6.5t1.5 9.5l2 12l-19 24q3 10 -1 18.5t-8 12.5l-22 -30q3 -8 4 -16q1 -7 -1 -14
t-8 -12q3 -8 4 -16q1 -7 -0.5 -14.5t-9.5 -12.5l13 -27l3 -38q-2 -4 -5 -8q-2 -4 -5.5 -9t-5.5 -11q3 -1 6.5 -7t6 -13.5t1.5 -15.5t-8 -13q1 -1 4.5 -5t5 -10t0.5 -12.5t-7 -11.5l14 -26l-104 -8q1 4 3 8q1 3 2 6.5t1 5.5t-1.5 5.5t-3.5 6.5l-4 8q2 5 3 11q0 5 -1.5 11
t-6.5 12l3 29q2 3 4 7q2 3 3.5 6.5t1.5 6.5q0 6 -7.5 15t-7.5 13q0 1 1.5 6t4 10.5t4 11t1.5 7.5q0 5 -7 16t-9 15q-1 1 1 5.5t4.5 9.5t5.5 9t3 6q1 2 -1.5 5.5t-5.5 7.5l-9 9l6 18q2 7 4 13.5t2 8.5t-2.5 6t-5.5 9q-4 5 -8 13l4 18q2 7 3 13t2 8t-1.5 6.5t-5.5 9.5l-8 12
l15 35l-15 33l11 25l-19 27l3 26l-3 21q8 -2 16 -2q7 0 14.5 1.5t14.5 8.5l28 -5q6 5 14 8q6 2 14 3t16 -3l20 14q7 -2 13 -3q5 -2 9.5 -2.5t6.5 -0.5q4 0 13 9l9 9l30 -11l22 17l21 -12l28 17l32 -6q4 -10 6 -20q2 -8 2 -17t-2 -15q0 -1 1 -2t1 -2t1 -3q-2 -1 -3.5 -1.5
t-2.5 -1.5q-2 -1 -2 -2l1 -26l-14 -10l2 -12q1 -5 1 -9t-2 -5q-9 -6 -8 -16.5t-2 -13.5t-10 -5q-4 -1 -7 -2l-3 -20l-18 -7l-3 -22l-18 -4l9 -11l7 -31q2 -5 5 -9q2 -4 4 -6.5t2 -4.5t-0.5 -7.5t-0.5 -11.5q-1 -7 -1 -15q5 -8 8 -17t4 -17q1 -10 0 -18q8 -4 13 -8
q5 -3 8.5 -6t2.5 -5q0 -2 -2.5 -7.5t-5.5 -11.5t-4.5 -12t-0.5 -7q2 -2 5.5 -6.5t8.5 -9.5q5 -6 12 -13l-11 -30l18 -17l2 -26q5 -8 5.5 -14t-0.5 -11t-2 -8.5t0 -4.5l7.5 -15t6.5 -12q4 -6 7 -12zM220 497l-25 -9l-18 8l-13 -14l-24 2l-19 -7l13 -27l-12 -9l9 -19l-6 -5
l4 -20l16 12l16 4l14 19l20 4l5 27l13 8z" />
    <glyph glyph-name="S" unicode="S" horiz-adv-x="312" 
d="M279 598q3 -6 5 -13q2 -6 0.5 -13t-6.5 -13l16 -28l-16 -27l13 -22l-16 -29l17 -24l-13 -21l13 -27l-89 -10l-7 18q3 7 3 12t-2.5 8.5t-11.5 3.5q1 12 0 20q-1 7 -3.5 10.5t-8.5 -2.5l-25 -14v-23l-23 -3l2 -20l24 -11l7 -14l8 -4q3 -2 6 -3.5l5 -2.5t4 -11q1 -4 1 -10
l30 -7l5 -19l32 -13l3 -25l32 -7l5 -30l32 -30l-4 -35l-26 -11l-1 -17l-25 -9l-3 -41l-27 -5l-14 -37l-34 -9l-12 -26l-24 -1l-19 -30l-20 2l-36 -10q-10 14 -17 25q-6 9 -9.5 16.5t1.5 7.5l12 24l23 -9l12 25l23 -3l4 28l28 7q5 7 9 14q3 5 6 11t3 8q-1 2 2 4.5t7 4.5
q4 3 9 5l-5 14l23 16l-7 26l-29 13q-1 7 -1 12v15q0 2 -5 2.5t-10 0.5q-6 0 -14 -1l-4 28l-37 5l-12 26l-36 9l-9 12l-24 11l-9 26l-20 14l2 34l25 4l-3 23l23 21l-3 32l32 18l4 27l46 10l9 22l45 13l17 36l38 4l8 24q13 0 24 -1q9 -1 17.5 -1.5t10.5 -0.5q2 -1 1.5 -5.5
t-2.5 -9.5q-2 -6 -5 -14z" />
    <glyph glyph-name="T" unicode="T" horiz-adv-x="323" 
d="M5 538q10 1 20 1h15t9 1q1 0 5.5 4t10 8t9.5 7t6 2q1 0 8 -1t14.5 -2t14 -1.5t8.5 -0.5t7 3t11 7q7 4 15 9q10 -2 19 -4q8 -2 14 -2t8 2q4 4 15 12q5 4 13 10l42 -5l28 17l21 -5l-4 -105l-16 3l-20 -19l-27 13q-2 -7 -3 -11q-4 -11 -5 -11h-6t-9 1t-11 2l-9 -25l8 -10
q3 -4 5.5 -7t0.5 -5t-3.5 -9.5t-3 -16t-2.5 -16.5t-1 -9q0 -2 1 -7.5t2.5 -12.5t2.5 -13t0 -8q-2 -3 -3.5 -8.5t-3.5 -11.5q-3 -7 -5 -14l6 -78l-12 -21l6 -16q2 -6 3.5 -12t0.5 -8l-7.5 -15t-3.5 -16q0 -2 1 -8t1.5 -13t1 -13t0.5 -9q-2 -5 -6 -15.5t-3 -15.5q1 -2 2 -7
t3 -10q2 -6 4 -13l-3 -41l-75 -21l1 35l-11 32q3 10 6 19q2 8 4.5 14t2.5 8t-2 8t-4 12.5t-4 12t-3 7.5t1.5 6t5.5 8.5t5.5 9t2.5 7.5q-1 2 -3.5 9.5t-5.5 15.5q-4 9 -7 20l8 12q3 5 5.5 9.5t2.5 6.5q0 1 -2 6.5t-4.5 11.5t-4.5 11.5t-3 7.5q-2 2 0 6.5t4 9.5q3 5 7 12
l-15 41l12 26l-16 35l8 30l-9 23l-11 8l-21 -12l-18 11l-23 -12l-21 -5z" />
    <glyph glyph-name="U" unicode="U" horiz-adv-x="339" 
d="M131 539q2 -6 2 -13q0 -6 -1.5 -13t-6.5 -12l11 -32l-6 -20q1 -9 1 -17t-1.5 -15.5t-6.5 -15.5l15 -25l-10 -24l7 -20q-3 -6 -6 -11q-6 -11 -4 -14q0 -2 2.5 -6t5.5 -9q4 -5 7 -11l-15 -24l4 -16q1 -7 1 -14.5t-4 -15.5l14 -20l-14 -20l17 -32q-4 -5 -6 -10t-1.5 -11
t5.5 -11q-3 -7 -3 -14q-1 -6 1 -12.5t9 -11.5q3 4 7 7q8 5 22 1q4 5 8 9q3 4 5.5 7.5t2.5 5.5q0 4 6.5 0.5t17.5 2.5q-2 4 -1 10q1 5 3 12t8 15q1 2 -0.5 5l-3.5 7t-2.5 9.5t4.5 13.5q-3 4 -5 9q-3 10 3 23l-5 23q3 5 4 10t0.5 11t-4.5 12l12 22l-12 18l2 12q1 5 0.5 11.5
t-3.5 13.5q1 6 0 13q-1 6 -2.5 12.5t-6.5 12.5l10 24l-11 22l10 21l-14 22q1 6 3 11q4 11 7 12q2 1 0 4.5t-5 8.5l-8 12q2 5 3 12q2 13 -1 28v30l121 15l-13 -23q4 -4 5 -9q2 -11 -7 -24q-1 -1 0 -5t2 -9.5t0 -13t-5 -14.5q-1 -3 8 -14q4 -5 10 -11q-3 -5 -6 -9
q-2 -4 -4 -7.5t-3 -5.5t1.5 -5.5t5.5 -7.5l8 -10q-4 -6 -5 -12q-1 -5 0.5 -12.5t7.5 -14.5l-6 -26q-4 -6 -7 -10q-7 -11 -7 -15q0 -7 5 -15l5 -10q-2 -4 -2 -8t1.5 -9.5t7.5 -12.5q1 -2 -1 -6t-5 -8q-4 -5 -9 -10q4 -9 7 -17q2 -8 3 -15.5t-3 -13.5q-2 -2 -4 -5t-4 -7
t-4 -12q0 -2 2.5 -4.5t5.5 -6.5t5 -10t-1 -15q-1 -4 -4.5 -9t-8.5 -16l13 -19l-9 -23l4 -30q-5 -1 -9 -4q-11 -5 -20 -16q-4 0 -9 -2t-11 -5t-15 -10q-4 0 -8 1q-3 1 -6.5 1t-5.5 1q-4 1 -12 -6.5t-23 -4.5q-7 -5 -13 -8t-12.5 -4t-14.5 3l-23 -21q-6 0 -13 -1q-6 -1 -13 -3
t-13 -6q-4 1 -9 4q-5 2 -12 6t-15 11q1 5 1 10t-1.5 11t-6.5 14l8 18l-12 19q1 5 1 12q0 5 -1 13t-3 17q1 5 2 11q0 5 -0.5 12t-2.5 15q1 6 2 11t1.5 9.5t2.5 8.5q2 3 -0.5 6.5t-5.5 6.5q-4 4 -9 7l7 30l-12 28q2 7 3 16q1 7 0 15.5t-6 16.5l10 29l-15 23q2 7 5 12
q5 10 7 16q1 4 -2 14t-5 15t2 11.5t6 11.5q2 2 0 7l-4 10q-3 5 -7 12q1 5 2 9q2 10 1 16q-1 4 -5 14q-2 4 -3 9q2 5 4 11q3 10 -1 24l113 15v-22z" />
    <glyph glyph-name="V" unicode="V" horiz-adv-x="334" 
d="M120 522l11 -16l-11 -18l19 -28l-12 -25l18 -29l-12 -28l24 -21l-9 -28l15 -39q-3 -5 -6 -9q-5 -8 -5 -12q0 -5 9 -16q4 -6 9 -12l-15 -20q6 -6 10 -12q3 -5 3.5 -12t-5.5 -12l15 -44q0 6 1 13q1 5 2 12t3 13q1 6 2 13q1 5 2.5 11.5t5.5 11.5q1 1 0.5 4.5t-2.5 6.5l-4 8
l14 23l-5 18l9 23l-7 30q2 6 5 10q2 4 3.5 7.5t1.5 5.5q0 3 -4 13q-2 4 -3 10l4 24l-7 20l13 28l-6 29q2 6 4 11t3 9t2 6t-1.5 5.5t-5.5 8.5l-8 12l9 20q-2 5 -3 10t-0.5 11t5.5 12l-8 20l124 14l-11 -14l6 -24l-17 -22l10 -24l-11 -22q4 -8 8 -13q3 -5 6 -8.5t5 -2.5t0 -2
t-5 -7q-4 -4 -9 -11l13 -25l-16 -17l6 -24l-2 -10q-1 -4 -1 -7.5v-5.5t-3.5 -6t-8.5 -8q-5 -5 -12 -10q4 -10 8 -17q3 -7 5.5 -12l3.5 -7q0 -2 -3 -6t-7 -9l-10 -12l12 -28l-12 -16q-5 -6 -9 -12t-3 -7t1.5 -6t1 -11.5t1 -12.5t1.5 -8q0 -2 -4 -5.5t-9 -7.5q-6 -4 -13 -10
v-50l-19 -22l4 -30l-17 -32l10 -19l-15 -21l-7 -31l-32 13v15q0 6 -0.5 11.5t0.5 7.5t-2.5 3t-8.5 3t-13 3q-1 6 -1 10v14q0 2 -4.5 4.5t-9.5 4.5q-6 3 -13 6l10 37l-23 11l4 31l-28 25l7 33l-25 25l12 40q-7 8 -11 15q-4 6 -7 11.5t-3 7.5t0.5 7t2.5 10l4 14l-21 30
q0 7 1 13q1 5 1 9.5t1 6.5t-3 7t-9 10l-14 14q2 8 3 16q1 7 1.5 14.5t-1.5 14.5l-15 28l16 24l-24 23l129 23z" />
    <glyph glyph-name="W" unicode="W" horiz-adv-x="503" 
d="M136 528q-2 -5 -4 -9q-4 -10 -4 -11t1.5 -5t3 -9t3 -9.5t1.5 -5.5q0 -5 -3 -11q-2 -4 -3 -8q4 -9 7 -16q2 -6 4 -11.5t3 -7.5q0 -1 -1 -5t-3 -8.5t-4 -8.5t-2 -5q-1 -2 2 -7.5t6 -12.5q4 -8 8 -17q-2 -6 -3 -10q-2 -10 -2 -14q0 -6 9 -20l10 -16q-1 -7 -3 -13
q-2 -5 -3 -10t0 -6q0 -2 1.5 -7.5t3.5 -11.5q2 -7 5 -16l-5 -10l-3.5 -7t-1.5 -5q-1 -2 1.5 -5t5.5 -8q4 -5 7 -11l-5 -18l12 -25l7 20l-4 22l14 20l-4 20l18 15l-10 20l5 10l4 8t2 6q0 3 -4 13l-4 10l4 8q2 3 3.5 6t1.5 5q0 3 -5 12.5t-7 11.5q-1 3 5.5 12.5t7.5 12.5
q0 1 -1 6t-2.5 10.5t-2.5 10t-1 6.5q0 1 1 5t3 9t5 11l-12 25q5 6 9 10l7 7t3 5t-1.5 5.5t-3.5 8.5q-3 5 -5 11q2 6 3 11t1.5 9t0.5 6q-1 1 -2 5t-2 9q-2 5 -3 11l13 15l-2 24l25 5v-8q0 -3 0.5 -6t2.5 -4q1 -1 2.5 -4l3.5 -7l5 -10q-2 -6 -3 -10q-1 -5 -2 -9t1 -6
q1 -2 3.5 -5t5.5 -7q4 -4 8 -9l-2 -31l22 -13l4 -44q-2 -7 -3 -12t-1.5 -9.5t0.5 -5.5q1 -2 4.5 -6t7.5 -9t7.5 -9.5t5.5 -5.5q1 -1 -1 -6t-5 -10.5t-5 -10.5t-2 -6q0 -2 3 -7t7 -10.5t7 -10.5t4 -6q1 -2 -2.5 -13.5t-1.5 -16.5q1 -2 3.5 -7.5t4.5 -10.5t4 -9t3 -4
q2 0 0 -4.5t-4 -9.5q-3 -6 -7 -13q2 -6 6 -10q2 -4 5 -7t5 -3q1 0 0 -3.5t-3 -8.5l-6 -12q3 -8 7 -15l5.5 -11t4.5 -4q1 1 1 4.5v8.5v12l9 16l-5 23l14 18l-8 16l12 15l-12 23l16 7l3 31l-5 23l4 12q2 5 3 8.5t1 5.5t-1.5 6t-3.5 9q-3 5 -5 13l16 27l-14 31q2 8 5 14l4 10
t3 7q0 2 -2 6t-4 9q-3 5 -7 11l6 12q6 11 9 13q1 1 -1 4.5t-5 8.5l-8 12l7 21l-8 19l122 15l-2 -30l-13 -19l11 -27l-14 -14l12 -42l-15 -27q3 -9 7 -16q3 -6 5 -11.5t3 -7.5q0 -2 -3 -5.5t-7 -7.5l-10 -10q2 -10 5 -18q2 -7 4 -12.5t2 -7.5t-3.5 -4.5t-7.5 -6.5
q-5 -4 -11 -9l10 -36l-20 -26l6 -18q2 -7 4.5 -12.5t2.5 -7.5t-3 -5t-7 -6.5t-8 -6.5t-5 -4q-1 -2 0 -8.5t3 -13.5l4 -18q-7 -3 -12 -7q-5 -3 -8.5 -6t-2.5 -4q0 -2 1 -8.5t2 -14.5q1 -9 3 -20l-28 -22l3 -47l-16 -15l11 -30l-16 -9l-2 -41l-24 8q-1 7 -3 12q-4 10 -11 18
q-2 2 -4.5 14t-3.5 16q-1 2 -10 4q-4 1 -9 2l-2 16q-1 6 -1 12v8t-3.5 4t-7.5 4q-5 2 -11 4q0 8 -1 16q-1 7 -2.5 14.5t-6.5 13.5l4 26l-23 17l-20 -23q2 -9 5 -17q2 -7 3.5 -12.5t2.5 -7.5t-8 -8l-10 -6l8 -35l-23 -13q2 -9 3 -17q1 -7 0.5 -13.5t-3.5 -10.5l3 -38l-26 -6
l-7 28l-24 1l10 26l-27 8l7 32l-29 13l6 33l-29 20l9 37l-30 23q1 9 3 17q2 7 2.5 13.5t1.5 8.5q1 4 -9.5 10t-13.5 8q-1 1 0.5 7t4 13t5 13t2.5 8q0 4 -11 13q-5 4 -11 9q2 12 4 23q2 9 3.5 17.5t1.5 11.5t-4 7t-9 8.5t-9 8t-4 5.5v6.5v11.5v11.5t-1 7.5q-2 5 -7.5 11
t-7.5 7q-2 0 -1 4t3 9.5t3.5 10t1.5 6.5q0 3 -7.5 10.5t-7.5 9.5t1 6.5t3 9.5l4 14q-5 6 -9 10q-9 9 -12 9q-1 0 18 3t42.5 7.5t43.5 8.5t21 5z" />
    <glyph glyph-name="X" unicode="X" horiz-adv-x="379" 
d="M116 586q4 -7 8 -13q4 -5 9 -11t13 -11l-4 -35l34 -32l-10 -24l17 -30l13 30q0 7 2 13q2 5 5.5 11t11.5 11q1 11 4 22q2 9 6 18t12 16l2 39l18 11l2 26l123 -46l-26 -13l3 -32l-33 -26l-4 -41l-16 -14q-6 -6 -11 -11.5t-6 -7.5t-0.5 -8.5t1.5 -12.5q1 -8 3 -16l-39 -30
l5 -31l-22 -34q7 -7 13 -12q5 -5 10 -9t7 -5t2 -6.5t-1 -11.5q-1 -8 -3 -17l24 -19l-4 -31l43 -39l-13 -41l30 -19l-12 -29l28 -21l-80 -44q0 6 -2 12q-2 5 -5 11t-9 12q-1 8 -4 17q-2 8 -6.5 16.5t-12.5 16.5l-7 37l-24 11l4 28q-7 11 -14 19q-6 7 -12.5 12.5t-12.5 3.5
l-4 -44l-28 -19l2 -31l-26 -21l5 -29l-31 -30q0 -7 -2 -15q-2 -7 -4 -14.5t-7 -13.5l-9 -33l-73 33v26l23 13l-8 26l26 28l-2 28q7 5 11 11q4 5 6 12.5t0 15.5l32 30l-8 35l30 30q0 9 1 17q1 7 3.5 13.5t8.5 11.5l7 41l-26 13l8 32l-26 15l5 33l-26 13l2 43l-35 20l4 32
l-28 16l109 52v0z" />
    <glyph glyph-name="Y" unicode="Y" horiz-adv-x="363" 
d="M240 603q1 -1 21 -8.5t43 -16.5q27 -11 61 -24l-21 -21l3 -21l-26 -23l-4 -38l-29 -21l2 -10q2 -10 2 -13q-1 -2 -4.5 -5.5t-7.5 -8.5l-11 -11v-13q0 -5 0.5 -9.5t0.5 -6.5t-3 -5.5t-7 -8.5t-9 -11q2 -3 4 -7q3 -7 2 -10q-1 -2 -4.5 -5.5l-7.5 -7.5q-5 -4 -11 -9
q3 -6 7 -11q2 -5 4.5 -8.5t1.5 -4.5q-3 -5 -10 -11q-4 -4 -9 -8q3 -5 6 -9q2 -4 4 -7t2 -5t-2.5 -5t-5.5 -7q-4 -4 -7 -9l-4 -36l7 -38l-23 -21l14 -32l-14 -21l13 -20l-11 -25l9 -17l2 -18l-92 -6l15 21l-11 27l7 21l-16 29l14 18l-11 32l16 20l-16 33l16 25l-21 30l13 22
l-16 26l-11 25l-20 10l7 36l-29 18l4 14q2 5 2.5 10t-1.5 6q-3 1 -14.5 8.5t-13.5 12.5q-1 2 0 6.5t2 9.5t3 11l-26 24l6 28l-27 28q28 12 51 23q10 5 18.5 8.5t16.5 7.5l16 8q-1 0 2.5 -5t8.5 -11q5 -7 11 -16v-27l11 -20l-4 -19l22 -16l-3 -26l19 -12l-2 -26q3 -6 7 -3
t7 8q4 6 8 17l-3 25l21 14l-6 29l19 16l-3 32l18 14l-4 28l16 10z" />
    <glyph glyph-name="Z" unicode="Z" horiz-adv-x="318" 
d="M28 581l48 -19l32 24l33 -19l33 22l40 -16l28 20l25 -11l29 17l33 -7l8 -30l-29 -7l1 -21l-17 -18l-2 -26l-25 -22l-1 -42l-21 -24l3 -33l-25 -27v-34l-30 -24l7 -44l-28 -22l6 -12q2 -5 4 -8.5t1 -5.5q-2 -4 -14 -16l-13 -13l7 -26l-32 -15l8 -24l-11 -18l26 11l18 -11
l26 20l32 -6l21 21h26l7 -81l-36 1l-41 -25l-21 10l-33 -26l-25 17l-30 -27l-26 21l-49 -31l-18 25l18 35l-5 31l29 21l-6 30l26 21l-5 23l22 31l-8 20l27 28l-12 30l23 24l-9 33l34 27l-7 28l35 22l-14 26l22 25l-8 26l-38 -20l-24 19l-29 -18l-21 16l-25 -21l-4 92z" />
    <glyph glyph-name="bracketleft" unicode="[" horiz-adv-x="278" 
d="M17 439q1 2 3 7.5t4 11.5q3 7 5 15l-14 29l12 32q-5 8 -7 18.5t-3 19.5q-1 11 0 22l16 -2l-11 25l27 15l-23 23l8 38l42 -16l32 20l27 -19l31 16q18 -12 24 -18l6 -6l25 25l19 -19l27 18l-7 -118l-30 8l-24 -19l-25 16l-26 -26l-17 10l-9 -16l12 -26l-10 -32l5 -33
q-4 -7 -8 -13q-3 -5 -4.5 -10t0.5 -7q4 -6 6 -20q1 -7 2 -15l-4 -16q-2 -6 -2.5 -12t1.5 -8t3.5 -8t3.5 -12q2 -7 5 -16l-14 -31l7 -42l-12 -24l12 -41l-12 -34l12 -30l-13 -26l13 -35q-4 -6 -8 -11q-3 -5 -5.5 -9t-1.5 -6t3 -7.5t4 -10.5q3 -6 5 -14q-4 -11 -4 -22l12 2
l18 -22l22 23q15 -10 19 -12t5 -3l27 20l17 -12l-5 -87l-24 8l-29 -15l-28 9l-29 -13l-25 15l-20 -14l-14 20l-18 -13l-16 27q-5 3 1 9.5t8 14.5l-18 4l11 38l-5 26l7 38l-14 29l2 22q1 9 1.5 17t1.5 11q1 6 -3.5 19t-3.5 18q1 2 3 8.5t4 14t4 14.5t2 9q0 4 -7 12.5t-6 12.5
q1 2 3 7l4 10l6 12l-14 30q1 9 3 17q2 7 3 12.5t1 7.5t-2 10.5t-4 17.5q-3 11 -6 23q2 8 5 14q2 5 3.5 10.5t1.5 7.5t-2 6.5t-4.5 9.5t-4.5 9.5t-1 6.5z" />
    <glyph glyph-name="backslash" unicode="\" horiz-adv-x="415" 
d="M3 553l126 38l-1 -36l23 -19l5 -32l20 -27q-2 -8 -2 -14q0 -5 1 -10.5t4 -6.5l6.5 -6.5t8.5 -9.5q4 -6 9 -12l4 -16q2 -6 4 -11t4 -7t6.5 -6t9.5 -9t11 -12l2 -33l26 -34v-26l30 -32l4 -34l25 -22l-1 -28l29 -26q-2 -7 -3 -13q-2 -13 1 -16l5.5 -5.5t8.5 -7.5l12 -10
q3 -16 10 -27q4 -5 7 -10l13 -36l-93 -16l-10 35l-17 20l-11 37l-27 21l-8 20q-3 8 -6 15.5t-4 10.5q-2 5 -12 15t-11 15q0 2 -1.5 8.5t-3 13.5t-3 13.5t-2.5 8.5q-2 5 -12 9.5t-11 9.5q-1 2 -1 6.5v9.5q0 6 -1 13l-26 22q-3 9 -5 16q-2 6 -3.5 11.5t-2.5 7.5q-2 2 -7.5 8
t-11.5 14q-7 9 -16 19l-2 14q-1 5 -1.5 10.5t-1.5 7.5t-5 5t-8.5 6.5t-8.5 6.5t-4 5q-1 2 -1 8t-1 12q-1 7 -2 15l-27 21l-3 33q-9 5 -15.5 13.5t-11.5 16.5q-5 9 -10 19z" />
    <glyph glyph-name="bracketright" unicode="]" horiz-adv-x="276" 
d="M247 416q0 -6 5 -18l6 -14l-6 -24q-2 -9 -4 -17.5t-2 -10.5t0.5 -8t2.5 -12q1 -7 3 -16l-13 -32q2 -7 5 -12q2 -5 4 -9l3 -6q2 -5 -5 -13.5t-7 -13.5q0 -2 1.5 -8.5t3.5 -14t4 -13.5t3 -8t-0.5 -7t-3 -11t-3 -11.5t-0.5 -8.5t1.5 -11t1.5 -16l2 -22l-14 -31l7 -38l-5 -25
l11 -37l-18 -6q2 -8 8 -14t1 -10l-15 -28l-19 11l-13 -22l-21 12l-25 -17l-28 10l-29 -11l-29 11l-23 -10l-5 86l16 14l27 -17q1 0 5 3q3 2 7 5.5t12 8.5l22 -20l18 23l12 -1q0 11 -4 22l6 14q2 5 3.5 11t2.5 8t-1.5 6t-5.5 9l-8 10l14 36l-14 25l12 31l-12 33l12 42l-12 23
l7 42l-14 30q2 8 5 16q2 6 3.5 12.5t3.5 8.5t1.5 8t-2.5 12l-4 16q0 8 2 15q2 14 7 21q2 2 0 7t-5 10l-8 12l6 33l-11 31l12 27l-8 15l-18 -12l-25 24l-26 -19l-23 17l-31 -12l-6 118l27 -15l18 21l25 -22l6 6q4 3 9.5 8t15.5 13l30 -14l27 22l32 -17l42 20l9 -37l-24 -25
l27 -12l-11 -26l16 3q1 -10 0 -21q-1 -9 -3 -20t-7 -19l12 -31l-14 -31l6 -14q2 -6 4 -11.5t3 -7.5q0 -2 -2 -6.5t-4.5 -9.5t-4.5 -9.5t-2 -6.5z" />
    <glyph glyph-name="asciicircum" unicode="^" horiz-adv-x="295" 
d="M24 453l25 12l-5 21l23 7l1 26l23 8l6 28l24 5l2 27l27 2l9 23l29 -3l-2 -25l24 -7l1 -25l23 -4l-3 -29l20 -12l-8 -22l23 -6l-9 -20l16 -6l-3 -19l13 -19l-74 -33l-1 26l-16 8l-1 22l-21 13l1 19l-17 13l-21 -16q1 -5 1 -9q0 -8 -1 -8q-5 0 -9 1q-4 0 -7 1l-9 -20
l-19 -2l-1 -22l-21 -2v-22l-59 40l19 16z" />
    <glyph glyph-name="underscore" unicode="_" horiz-adv-x="408" 
d="M32 56l28 -12l12 26l32 -14l14 24l28 -9q5 5 9 10t6 8q3 4 5 6l22 -16q8 2 11 5.5t5 6.5q2 4 1 7l34 -18l12 26l32 -14l14 24l28 -9q5 5 9 10t6 8q3 4 5 6l22 -16l13 22l15 -93l-27 8l-13 -17l-25 8l-16 -20l-25 6l-19 -15l-21 9l-14 -21l-46 14l-13 -17l-25 8l-16 -20
l-25 6l-19 -15l-21 9l-14 -21l-17 11q-5 -6 -9.5 4.5t-8.5 25.5q-4 18 -8 43q8 -7 14 -1q3 3 5 7z" />
    <glyph glyph-name="grave" unicode="`" horiz-adv-x="225" 
d="M149 393l-8 30l-28 -6l-8 34l-27 -4l-10 28q-8 1 -13.5 1.5t-9.5 0.5h-8v27l-26 -3l66 68l10 -26l21 -1l9 -24l25 -1l10 -24l24 -6l5 -22l25 1l2 -20q8 -1 2 -11t-16 -22q-11 -14 -29 -32q0 10 -8 12q-4 1 -8 0z" />
    <glyph glyph-name="a" unicode="a" horiz-adv-x="318" 
d="M313 25l-82 -24l-6 32q2 6 3 12q2 13 -5 24q-2 3 3 14t5 15q0 2 -1 3l-26 2l-23 -14l-26 12l-7 -30q-7 -1 -14 -4q-6 -2 -13 -5t-15 -5q0 -11 -6 -21q1 -13 1 -24q0 -10 -0.5 -19.5t-3.5 -14.5l8 -27l-100 2l15 22q-5 11 -7 22q-2 9 -1 18.5t8 15.5l-15 22l24 15l-17 36
l24 22l-16 51l17 19l-10 29l14 24l-8 41l22 17l-5 28l17 24l-14 35q7 6 13 10q5 4 9 8t5 6t-0.5 8t-3.5 12l-6 16l14 12q5 5 9.5 9t5.5 6t0 5t-3 6l-4 8l10 8q4 3 7.5 6t4.5 5t0 7.5t-3 10.5q-2 6 -5 14q8 5 14 11q5 5 8 11t1 14l25 19l9 18l23 -8l-4 -33l29 -18l-2 -18
q-1 -8 -1.5 -16.5t-1.5 -16.5q8 -7 15 -13q6 -5 10.5 -10t6.5 -7t-0.5 -5.5t-4.5 -6.5q-4 -4 -7 -8l19 -26l-5 -26q6 -8 11 -14q4 -5 7.5 -10t3.5 -7q0 -3 -1 -10.5t1 -11.5q1 -4 10.5 -12t11.5 -10q1 -1 -0.5 -4.5t-4 -7l-5 -7t-2.5 -5.5t3 -5.5t7 -8.5t10 -11
q-5 -5 -7 -12q-2 -6 0.5 -14t12.5 -16q2 -7 3 -13q2 -13 -7 -19q-6 -4 -6 -9.5t2 -11.5q3 -7 8 -14q-3 -6 -6 -11q-2 -5 -3.5 -9t-0.5 -6q0 -2 3 -7t7 -10l10 -14l-6 -10q-2 -4 -3.5 -8t0.5 -6q4 -6 7 -17q2 -6 4 -13l-11 -21zM187 167l14 5q1 5 2 17.5t0 16.5
q-1 2 -3.5 5.5t-4.5 7.5l-6 10l10 32l-12 24q1 7 0 14q-2 14 -12 22l-1 26l-17 17q-2 -7 -5 -13q-2 -5 -5 -11.5t-7 -11.5q0 -9 -1 -19q-1 -8 -3 -17.5t-7 -16.5l2 -44l-14 -19l9 -27l-16 -25l1 -3q12 5 26 1l31 19z" />
    <glyph glyph-name="b" unicode="b" horiz-adv-x="346" 
d="M317 292q-2 -2 0 -5.5t5 -8.5q4 -5 8 -11l-12 -17q0 -8 2 -20t-4 -18q-12 -11 -11.5 -25.5t-2.5 -18.5q-14 -16 -13 -29.5t0 -17.5q-2 -4 -12 -8q-4 -3 -10 -4q1 -7 1 -12v-8.5t-1 -5.5q-3 -4 -13 -6l-10 -2q0 -6 -1 -11t-1.5 -9t-1.5 -6q-2 -2 -5.5 -2.5t-8.5 -1.5
t-11 -1l-3 -19l-29 3l-2 -23l-22 1q-6 -11 -14 -13q-4 -2 -8 -1q-4 -5 -8.5 -8.5t-9.5 -5.5l-68 -3l3 27l-12 20q3 6 5 13q2 6 1.5 13.5t-4.5 15.5q2 6 4 11t3 8.5t2 5.5q0 2 -2.5 5t-5.5 7q-4 4 -9 10q2 6 4 11t3.5 9t1.5 6t-2.5 6t-5.5 9q-4 5 -7 11l15 29l-15 21l12 32
q-4 8 -8 15q-3 6 -6.5 11t-4.5 7q-2 2 0 7t5 11l8 16l-14 26l13 33l-19 35q2 7 5 13q2 5 3.5 10t1.5 7t-2 4.5t-4 6.5q-3 4 -6 9l12 23q-4 7 -8 13q-7 12 -11 16q-2 2 -2 5.5v7.5t1 9l-4 19h30q2 0 12 -2l10 -2q3 5 7 9q8 8 12 7t13 -2.5t12 -0.5t12.5 9.5t14.5 9.5
q5 2 12.5 -1.5t11.5 -5.5q2 -1 4.5 2t6.5 7l9 9l25 -12l25 16l24 -16l13 18q14 1 25 3q10 2 18.5 2.5t10.5 0.5l6 -3t9 -4q5 -3 11 -5l-6 -18q4 -3 8 -7q3 -3 5 -6t3 -5q2 -3 -4 -10.5t-6 -11.5v-26q-2 -2 -4 -5q-3 -5 -5 -13l-15 -10l4 -24l-23 -6l-3 -20l-16 -5l-3 -16
l-17 -10q9 -5 14 -7t17 -7l8 2q6 -2 8 -5q0 -2 3 -5t7 -6q4 -4 10 -7q-1 -5 -2 -9q-2 -10 -2 -13q-1 -2 0.5 -5.5t3.5 -7.5l4 -8t2 -5q2 -4 -3 -10t-7 -10zM115 448l6 -10q5 -10 2 -21l5 -28q7 5 13 11q5 5 10.5 11t10.5 12q5 -2 10 -3t9.5 0t7.5 6q5 4 9 8t7.5 8.5
t7.5 11.5l6 10q5 11 4 22l-20 -3q-6 0 -13 -2q-6 -2 -13 -4.5t-12 -7.5l-20 11l-22 -14zM221 247l12 16q-3 2 -6 5q-5 5 -5 9q0 3 3 9q2 4 4 7q-3 1 -6 4q-2 2 -5 4t-4 4q-6 7 -14 9q-4 1 -9 0q-4 -4 -7.5 -4.5t-7.5 -0.5t-9 2l-10 -17q-5 2 -9.5 2h-7.5q-4 0 -7 -1l-9 -14
l10 -22q-3 -5 -3.5 -10.5t0.5 -9.5q1 -5 3 -9l-9 -17q3 -3 5 -7q4 -8 4 -10q-1 -2 -1.5 -4.5t-2.5 -5.5q-2 -4 -4 -7q1 -2 3 -5q4 -6 4 -8t-1.5 -5.5t-3.5 -7.5t-4 -9l7 -19l-10 -16q2 -6 2.5 -11t0.5 -10t-1 -9l2 -14l14 16q4 1 7.5 5.5t6 9.5t4 8.5t2.5 3.5q1 -1 3.5 -0.5
t4.5 0.5h6l7 22q4 2 5.5 7t3.5 10q1 6 2 13l18 6v9q0 10 1 12q4 4 5 9t0 10t-3 11l17 13z" />
    <glyph glyph-name="c" unicode="c" horiz-adv-x="311" 
d="M286 295q-6 -2 -11 -5q-11 -6 -14 -10l-72 -17l8 21l-5 5q-6 6 -7 6q-2 0 2.5 8.5t6.5 11.5q1 2 -1.5 4.5l-4.5 4.5q-4 3 -7 6q3 4 5 8q2 3 3 6t2 4q0 3 -3 11q-2 4 -3 9l7 21l-9 15q1 3 3 7q4 8 6 10q3 3 -3 11l-6 8l11 16q-3 5 -6 9q-2 4 -3.5 8.5t0.5 9.5l-25 -2
l-25 -10q-1 -3 -1 -6q-1 -2 -1 -4.5v-3.5q-1 -2 -2 -3.5t-3 -3.5q-2 -3 -5 -5l5 -20q-3 -2 -5 -5q-5 -5 -5 -7q0 -5 3 -12q2 -4 4 -9l-9 -20l12 -24l-11 -12l8 -25l-5 -25l9 -18l-7 -20l12 -23l-4 -20l13 -21l-5 -19l20 -16l-2 -17l18 -23l4 -10q4 -9 7 -9q1 0 4.5 2.5
t6.5 5.5l8 8l17 -4l14 16l28 2l16 14l24 -70l-15 -22l-28 -8l-20 -22l-28 5l-6 -12q-2 -5 -4.5 -8.5t-2.5 -1.5q0 1 -3.5 2t-8.5 2t-12 1l-18 -24l-18 18q-5 -1 -9 -2q-8 -2 -10 0q-2 1 -2 4t-1 7t-1 9q-4 1 -8 1h-6.5t-4.5 1q-2 0 -1 5t3 10l4 14l-10 4q-10 4 -10 6
q-1 1 -1 6v10.5t0.5 10.5t0.5 7q1 2 -10 6t-13 6q-1 1 0 6t2.5 11t3.5 11.5t2 7.5q0 1 -8 5q-4 1 -9 3q2 8 3 15q1 6 1.5 10.5t1.5 6.5q0 1 -3 3t-7 4.5t-7.5 4.5t-4.5 4q0 2 2 8t4.5 12.5t5 12.5t2.5 7t-3 2t-6.5 1.5l-7 1t-3.5 1.5t1 7t3 13t4 13t3 7t-2 2.5t-7 2.5t-7 2
t-3 2t1.5 7t3.5 12.5t4 11.5t3 6t-1.5 2.5t-5.5 3t-5 3t-2 3.5q0 1 -0.5 8.5t-2.5 15.5q-2 10 -3 21l14 36l-11 18l11 26l-4 12q-2 5 -3.5 9t-2.5 6q-1 1 -1.5 6t-0.5 11t0.5 11t1.5 6q1 2 2 7t3 11l4 16l23 -4l19 21q7 -1 12 -3t9 -3t6 0q3 1 12.5 7.5t11.5 7.5q1 0 5.5 -1
t10 -2.5t10 -3.5t5.5 -2q1 -1 5.5 1.5t9.5 5.5q6 4 13 8q8 -2 15 -4q6 -2 11.5 -3.5t7.5 -1.5q1 0 6 2t10.5 5t10.5 5.5t7 2.5q3 0 14 -7q5 -4 11 -8q5 -4 9 -7q3 -3 5.5 -5t3.5 -4q0 -2 -1.5 -5l-3.5 -7t-4 -9q4 -5 8 -9q3 -4 5.5 -7t3.5 -5q1 -5 -6 -12q-4 -4 -8 -7
q3 -3 6 -7q2 -3 4.5 -5.5t3.5 -4.5t-6 -11.5t-8 -12.5q-1 -1 1 -5.5t5 -9t5.5 -8.5t3.5 -5q0 -4 -7 -11l-8 -8l7 -30l-13 -20l10 -31l-11 -12l10 -25v0z" />
    <glyph glyph-name="d" unicode="d" horiz-adv-x="332" 
d="M326 518q-3 -8 -4 -15.5t-1 -13.5q0 -7 2 -13l-13 -29q1 -9 1 -16v-11.5t-1 -7.5t-4 -7.5t-6 -11.5l-8 -16q-1 -10 -2 -19q-1 -8 -1.5 -14t-1.5 -8t-6 -8.5t-10 -14.5l-14 -20l4 -35l-22 -24q3 -15 -5 -26q-4 -5 -9 -10l-4 -30l-29 -29q1 -9 -3.5 -17.5t-9.5 -15.5
q-6 -8 -15 -15q2 -6 3 -11t1.5 -9t-1.5 -6t-5.5 -5t-8.5 -7t-12 -9l-3 -22l-22 -11l-11 -23l-36 -13l-17 10l-4 37q2 6 0 12.5t-5 11.5q-4 6 -9 13l17 46l-13 26l11 24l-15 40l14 58l-14 24l9 39l-18 28l11 24l-4 14q-3 10 -3 17q0 2 1 6t3 9t5 11l-20 29l15 28l-13 28
q2 6 2 13.5t-2 14.5q-2 8 -5 17l52 6q8 1 13.5 3.5t10.5 5.5q5 4 9 7l28 -11l28 16q6 -2 10 -3l8 -2t6 0l14 7q5 3 11 6l34 -6l25 14l26 -8l22 10l18 -23zM212 467q1 7 1 11t-1.5 6.5t-6.5 -0.5q-3 -1 -7 -2q-3 -2 -6.5 -3.5t-7.5 -5.5l-17 6l-15 -8l-15 11l-3 -14l-2 -24
l2 -12q0 -5 -0.5 -10.5t-2.5 -10.5l6 -21q-2 -4 -3 -7q-3 -6 -3 -9q0 -4 2 -12q1 -4 3 -8q-1 -3 -3 -6q-4 -6 -3 -9q0 -2 1 -6t2 -9t3 -12q-2 -3 -3 -6q-1 -2 -2 -4.5t-1 -4.5q-1 -3 1 -10.5t3 -10.5q0 -2 -0.5 -5t-2.5 -5l-3 -6q2 -6 2 -12q0 -5 -1 -12t-3 -12l6 -23
l-2 -19q-1 -8 0 -13q0 -5 1 -7.5t3 0.5q0 3 1 7q2 8 7 14q1 4 3 8t3.5 8t5.5 8v17l9 15v17l11 20q0 4 1 9t2 10.5t5 11.5q1 3 -1 13t-3 12q-1 3 5 11t7 11v14v11l14 15l-6 28l12 17z" />
    <glyph glyph-name="e" unicode="e" horiz-adv-x="303" 
d="M301 66l-25 -4l-8 -21q-9 -1 -16 -3q-6 -2 -11 -3t-5 -2q-3 -5 -7 -11l-6 -8l-31 3q-2 -6 -5 -10q-2 -4 -4 -7.5t-3 -5.5q-3 -3 -13 -1q-5 1 -11 2q-11 -8 -25 -10q-7 -1 -13 -1l3 20l-20 12q0 4 -2.5 7.5t-6 7t-6.5 6t-3 4.5v6.5t1 10.5t2 15l-19 19l6 27l-21 18l10 22
l-23 30l8 24l-20 24l13 24l-9 9q-3 4 -5.5 7t-2.5 5t7 13q3 4 7 11l-21 23l11 29l-17 19l17 22l-18 24l18 22l-15 29l10 8q8 7 7 8q-2 0 -4.5 4.5t-5.5 9.5q-4 6 -7 14l20 11l-15 37l38 -7l21 22l24 -15l25 22l26 -15l22 20l19 -12l26 16l19 -15l19 15q8 -9 19 -7q5 1 10 3
l-2 -100q-5 5 -9 5t-8 -2t-8 -5l-29 9l-15 -16l-23 11l-9 -17l-27 9q-5 -5 -10 -6t-10 -1t-11 1l1 -20l-14 -14q4 -5 4.5 -12t-1.5 -13q-2 -7 -6 -15l10 -19l32 -8l20 22l27 -28l16 16l19 -11l15 18l10 -7l5 -69h-21l-6 -16l-26 7l-12 -17l-25 8l-10 -14l-20 6q-3 -7 -6 -11
q-6 -11 -9 -11q-2 0 -4 0.5t-6 0.5q-1 -3 -1 -6q0 -2 -1 -3q6 -12 6 -27v-15q3 -2 7 -5q8 -6 8 -8t-0.5 -7.5t-1.5 -11.5q-1 -7 -2 -15l16 -10l2 -24q8 -12 11 -24q2 -6 3 -13l18 -2q4 -3 8 -1t9 5l10 10l15 -4l20 16l17 -9l15 17z" />
    <glyph glyph-name="f" unicode="f" horiz-adv-x="293" 
d="M265 356l9 -96l-15 2l-8 -11h-19l-10 -8q-9 -7 -13 -7q-2 -1 -5.5 0.5t-6.5 3.5q-4 2 -8 5l-15 -11l-17 6q-2 -3 -5 -7q-6 -8 -7 -7h-5t-7 1q2 -2 9.5 -8.5t6.5 -8.5q-2 -2 -3.5 -5.5t-3.5 -7.5q-3 -4 -5 -10q3 -4 6 -7q6 -8 5 -9q-1 -2 -2.5 -6t-3.5 -9l-4 -12l11 -14
l-14 -26l4 -6q2 -2 2.5 -4.5t1.5 -4.5q0 -2 -3 -10t-4 -12t4.5 -10.5t4.5 -9.5q-1 -2 -4.5 -7.5t-4.5 -7.5q0 -2 0.5 -5.5t2.5 -7.5q1 -4 3 -9l1 -34l-76 -8l7 21l-15 13l5 17l-15 23l14 15l-14 39l7 25l-13 31l8 16l-6 16q-2 6 -4 11.5t-2 7.5q-1 1 1 6t5 10l8 14l-17 21
l10 23l-22 25l13 32l-14 33l17 29l-18 23l18 26l-21 17l18 22l-24 36l-9 40l44 1l25 20l50 -5l26 12l31 -8l24 16l27 -6l20 15l18 -16l15 11l2 -101l-17 1l-14 -15l-28 4q-11 -12 -23.5 -12t-15.5 1q-3 0 -6 -8t-8 -7q-2 1 -6.5 2t-9.5 2l-12 2l-4 -25q-2 -5 -0.5 -10
t3.5 -10t5 -11l-10 -24l6 -23l-10 -25l7 -18l-2 -7l9 -2l17 16l13 -10l20 18l18 -7l17 15l15 -6z" />
    <glyph glyph-name="g" unicode="g" horiz-adv-x="335" 
d="M319 246q-2 -5 -3 -9t-2 -7t-1 -4q-1 -2 3 -12q2 -4 3 -9q-2 -5 -4 -9l-4 -10q0 -2 0.5 -5.5t1.5 -8.5t2 -11l-6 -20l8 -14l-9 -20l4 -18v-22l-12 -12l11 -17l-3 -24l2 -4q1 -2 2 -3.5t1 -3.5t-2.5 -4.5t-4.5 -5.5q-3 -4 -6 -7l5 -18l-73 -8v27l12 20l-21 26l7 14l-8 16
l-21 -9l-9 -17l-21 1l-12 -18l-26 1l-21 13v8v6.5t1 5.5q0 3 -11 2.5t-14 1.5q-2 2 1 12.5t3 13.5q0 1 -3 4t-7 6l-8 6t-4 5q-1 5 3 18.5t6 17.5q0 2 -3 3t-6.5 2l-7 2t-3.5 3t-0.5 7.5t-0.5 11.5v10.5v6.5q-1 3 -9 8.5t-7 10.5q1 2 1.5 8.5t0.5 14t0.5 14t0.5 9.5
q0 5 -9 10t-10 8q0 1 0.5 7t2 12t3 11.5t2.5 7.5q0 1 -3 3t-6.5 4.5t-7 4t-3.5 3.5q0 1 1.5 6.5t3.5 12t3.5 12.5t2.5 8q0 5 -6 13l-6 8l6 16l4 12t3 8t-1.5 5.5t-5.5 7.5q-4 4 -8 9q2 11 5 20q2 8 4 15t3 9q2 3 -4 11q-3 4 -6 7l13 29l-4 23q4 8 8 13q3 5 6.5 8.5t6.5 4.5
q2 0 6 -1t9 -3l10 -5l16 20l25 -10l21 20q7 -2 13 -4q5 -2 10 -3.5t7 -1.5q2 -1 4.5 1.5t5.5 4.5q4 3 8 7q8 -1 14 -3q5 -2 10 -3t7 -2t6 1.5t9 5.5l12 8l23 -13l21 10l23 -14l12 -28l-11 -18q3 -7 7 -12q3 -5 5 -9l3 -6q0 -2 -2 -5t-4 -7q-3 -4 -7 -9l10 -26l-13 -20
q2 -5 3 -11q1 -5 0.5 -12t-3.5 -14l4 -30l-100 -21l8 25l-13 5l11 17l-6 17l2 10q0 5 -0.5 10.5t-5.5 11.5l-2 26q-5 -2 -9 -2q-10 0 -19 5q-5 -3 -11 -5q-5 -2 -11.5 -2.5t-11.5 3.5l-14 -21q1 -5 0 -10q-2 -11 -10 -18q-2 -1 0 -4t5 -7q4 -4 8 -9l-13 -33q3 -4 5 -8l5 -10
q1 -3 -4.5 -11t-4.5 -13q1 -4 5.5 -13.5t6.5 -12.5q1 -2 -1 -6t-4 -8.5l-4 -9t-2 -5.5q0 -2 2.5 -5t4.5 -7q3 -4 7 -9q-2 -5 -4 -9q-3 -8 -3 -11q0 -2 2.5 -5t5.5 -7l9 -9q-2 -5 -1 -10q0 -10 9 -22l-3 -18l-1 -16q2 -3 6 -7q3 -3 6 -7t7 -8l19 4q5 -1 10 0t10.5 2.5
t11.5 5.5l-1 2l11 13l-9 15l9 11l-6 24l-17 -6l-12 9l-15 -11l-16 85l14 -6l4 12l24 -5l16 16l21 -5l21 12l20 -6l17 14h19l-6 -25l10 -13l-5 -21l5 -21v0z" />
    <glyph glyph-name="h" unicode="h" horiz-adv-x="329" 
d="M142 558l-4 -8q-4 -8 -4 -11t5 -11q2 -4 5 -9l-13 -18l15 -26q-3 -3 -5 -6q-5 -5 -5 -10q0 -4 5 -14t5 -12t-2.5 -4.5t-4.5 -6.5q-3 -4 -6 -9l11 -22l-4 -8q-4 -8 -6 -10q-1 -2 1 -6t5 -9t7 -12q-4 -3 -7 -7q-7 -7 -7 -10q0 -5 3 -14l4 -12l16 8l14 -9l12 17l19 -7l-1 16
l10 18q-2 2 -4 5l-4 4l-3 3q-2 1 0 3.5t4 4.5q3 3 7 6l-8 19q1 6 3 11q3 9 3 15q-2 7 -6 12q-3 4 -5 7l4 12q2 5 3.5 9.5t1.5 6.5q0 3 -4 13l-4 10l12 21l-13 18l10 13l-17 31l2 22l-4 21l130 5l-9 -22l6 -10q2 -4 3.5 -7.5t2.5 -5.5q1 -3 -6.5 -11.5t-7.5 -10.5q0 -5 5 -17
l6 -14l-13 -19l4 -20q2 -8 2.5 -15t0.5 -8q-1 -2 -4 -12t-1 -14q1 -2 2.5 -7t2.5 -11q1 -7 2 -15l-14 -21q2 -10 5 -18q2 -7 3.5 -13t2.5 -7q1 -2 -1.5 -6.5t-4.5 -9.5q-4 -6 -7 -12l8 -45q-3 -6 -5 -11t-3.5 -9t-1.5 -6t1.5 -7t3.5 -10.5t4.5 -10.5t2.5 -6q1 -2 -6 -10
t-7 -10t1 -6.5t2.5 -10t3 -10.5t1.5 -6q0 -2 -5.5 -11.5t-5.5 -13.5t3 -14.5t3 -12.5t-1.5 -5t-3.5 -6q-3 -4 -5 -7l12 -31l-88 -10v9l-6 18q1 6 3 11t2.5 9.5t1.5 6.5q0 5 -5 12q-3 4 -6 6q1 6 3 11t2.5 8.5t1.5 5.5q1 3 -2.5 13t-4.5 13q-1 1 1 5.5t4 9.5q3 5 5 12l-7 21
v24q-6 -3 -11 -6q-10 -5 -13 -8q-3 -1 -10 4q-4 2 -7 5l-27 -19l3 -45l-9 -16l13 -25l-9 -20l11 -32q-3 -6 -5 -11t-3.5 -8.5t-1.5 -4.5q-1 -2 0.5 -5l3.5 -7l5 -10l-12 -18l8 -36l-42 -10q-16 -4 -29.5 -7.5t-14.5 -3.5q-2 -1 1 4.5t4 8.5q1 4 -4.5 9t-8.5 7q-2 1 0 4.5
t5 7.5l6 8t3 6q1 5 -3.5 15.5t-6.5 15.5t3 13.5t6 10.5t-4.5 9t-9.5 9q-2 1 -0.5 4.5t4.5 7.5t5.5 8t2.5 6q0 4 -5 11.5t-7 9.5q-1 1 1 5t5 9.5t6 10t3 6.5q1 4 -7.5 10.5t-13.5 8.5q-2 1 -0.5 6t4.5 11l6 12t3 8q1 5 -7.5 13t-10.5 11t5 13t9 16q1 3 -1 7.5t-5.5 9t-6.5 8
t-3 4.5t1 5t3 8.5t4 8.5l3 6q1 4 -5 15.5t-6 15.5q0 6 5 18l6 14l-22 20l4 14q2 5 3 9.5t1 6.5q0 1 -2.5 4.5t-5.5 8.5q-4 5 -8 11q2 5 4 9q4 10 4 12q0 1 -2.5 4.5t-4.5 8.5q-3 5 -6 11q2 5 4 9q4 9 7 11q1 1 -1.5 5.5t-5.5 9.5q-4 6 -9 13q36 6 64 11q24 5 44.5 8.5
t22.5 3.5z" />
    <glyph glyph-name="i" unicode="i" horiz-adv-x="172" 
d="M149 575q1 -9 0 -18q-1 -8 -3.5 -17t-7.5 -16l12 -26l-13 -26q2 -7 5 -12q2 -5 4 -9.5t3 -6.5q1 -4 -5.5 -14t-6.5 -14q0 -5 5 -15q2 -5 5 -11l-6 -20q-2 -8 -4 -15t-2 -9q0 -7 3 -17q1 -6 3 -13l-13 -27q2 -6 5 -10q2 -4 4 -7.5t3 -5.5q2 -4 -5 -11.5t-7 -11.5
q0 -2 1.5 -7.5t3.5 -11.5t4 -11.5t3 -7.5t-0.5 -6t-3 -9t-3 -9.5t-0.5 -6.5q1 -3 1.5 -9.5t1.5 -14.5l2 -18l-13 -26l6 -32l-5 -22l7 -30l-90 -24l-5 32l2 10q0 5 -0.5 10.5t-2.5 13.5q2 7 5 12q5 10 7 16q0 2 -2.5 5.5t-5.5 6.5l-8 8l14 31l-14 21l12 26l-12 28l12 36
l-12 19l7 36l-14 25q2 8 5 14q2 5 3.5 10t3.5 7t1.5 7t-2.5 10q-2 6 -4 13q1 7 3 13q2 5 3 10.5t3 7.5t0.5 6t-4.5 8l-8 10l5 28l-10 27l12 22l-18 27l130 21v0z" />
    <glyph glyph-name="j" unicode="j" horiz-adv-x="306" 
d="M60 558l22 -5l18 15q10 -1 19 -2q8 -1 13.5 -1h7.5q3 0 11 7.5t13 5.5q2 -2 9 -2.5t15 -1.5q9 -1 19 -1l21 11l16 -11l29 17l23 3l7 -118l-20 10l-14 -15l-18 4l-10 -17q-5 -1 -7 -5.5t-2 -10.5q0 -7 1 -15q-4 -6 -4 -13t1 -12q1 -6 4 -12l-7 -23q1 -3 3 -7q3 -6 3 -11
q0 -2 -2 -6t-4.5 -8.5t-4 -8.5t-0.5 -5q0 -2 2 -6l4 -8l5 -10l-11 -29l11 -21l-16 -34l11 -27l-14 -24q5 -6 5.5 -14t-1.5 -16q-2 -9 -6 -18q3 -5 6 -9q2 -4 4 -7t2 -4q0 -2 -4.5 -12.5t-4.5 -13.5q0 -2 0.5 -7t1.5 -11q1 -7 3 -15l-37 -31l-29 -5l-9 -9q-4 -3 -6.5 -5.5
t-4.5 -2.5t-7.5 2.5t-10.5 5.5q-7 4 -14 9l-29 -13l-18 20l-45 2l23 103l27 -17q3 5 9 3.5t11 -4.5q6 -4 14 -10q6 5 11 6l10 2h10l19 12l-9 36l9 15l-6 16q-2 6 -4 11.5t-2 7.5q0 3 5 13q2 4 5 11q-4 7 -7 13q-2 5 -4.5 9.5t-2.5 6.5q0 1 1.5 5.5t3.5 10t3.5 9.5t0.5 6
q-2 2 -3 7t-3 12t-3 17l9 33l-13 21l10 39q-5 5 -6 12.5t0 13.5q1 7 4 14l-27 -2q-5 2 -10.5 1t-10.5 -3q-6 -3 -12 -8l-19 12l-16 -19q-3 -1 -5 4t-4.5 14t-4.5 20.5t-3 23.5q-4 28 -7 65l27 -9z" />
    <glyph glyph-name="k" unicode="k" horiz-adv-x="351" 
d="M347 52q3 -2 4 -7.5t-1 -18.5l17 -29l-66 -25l-11 45q-1 4 -4 8q-2 4 -5.5 9.5t-7.5 13.5l2 6q1 2 2 4.5t2 4.5q1 1 -3 6t-9 10.5t-10 10.5t-5 7q-1 2 0 5.5t2 7.5l2 10l-18 24q-1 8 -1 15v11t1 7q0 2 -4.5 5.5t-9.5 8.5l-14 12q1 8 2 15q2 14 3 18q1 2 -4 5.5t-12 8.5
q-8 5 -18 11l4 29l-25 27l9 27l-16 18q-2 -2 -5.5 -11.5t-6.5 -11.5q-2 -2 -5.5 -2t-6.5 1q-7 -12 -5 -15q1 -2 3.5 -6t5.5 -9t5 -9.5t1 -6.5t-2 -6.5t-2 -9.5q-2 -5 -3 -12q4 -9 7 -17q2 -7 4 -12.5t1 -7.5t-2 -7.5t-3 -11.5q-2 -7 -5 -15l6 -14q2 -5 3.5 -9.5t0.5 -6.5
t-3 -6.5t-5 -9.5q-4 -6 -8 -13q5 -7 9 -12q3 -5 5.5 -10t1.5 -7q-2 -6 -7 -16q-3 -5 -6 -11q3 -7 6 -13q2 -5 4 -9.5t2 -6.5q-1 -2 -0.5 -5t0.5 -6v-8l-83 -11l-4 14l7 32l-21 40q3 9 5 16q2 6 3 11t0 5q-2 0 -3.5 5.5t-3.5 12t-3 12.5t-1 8q0 1 1 7t2.5 12.5t2 12t-0.5 6.5
t-4 6t-5.5 11t-4 12t-0.5 8q3 4 8.5 14t3.5 11q-1 0 -3 5.5t-4 12l-4 13t-2 9.5q0 2 1 8t2.5 12.5t2.5 11.5t0 5q-2 0 -4.5 6.5t-5.5 14.5q-4 9 -7 20q4 7 8 13q3 5 5.5 9t0.5 5t-5 7t-5.5 14t-4 15t-0.5 9q2 5 7.5 16t2.5 12q-2 0 -3.5 7t-3.5 15q-2 10 -3 21l7 7l4.5 4.5
t0.5 2.5t-4.5 4.5t-4.5 9.5l-6 14l130 14l-14 -41q3 -8 6 -15q2 -6 3.5 -11t0.5 -6q-1 -2 -2.5 -8t-3 -13.5t-3 -14t-1.5 -7.5t2 -6.5t4 -12.5l8 3v27l36 11l1 23l14 4q5 2 10 3.5t6 3.5q0 1 0.5 6.5t1 10.5t1 9.5t1.5 4.5q2 0 5.5 2.5t8.5 5.5q5 4 11 8l-3 17l13 11
q18 -12 44.5 -29t46.5 -31l-13 -8q0 -6 -1 -10q-2 -9 -3 -9l-14 -7q-5 -3 -12 -7q-2 -7 -3 -13q-1 -5 -2 -9.5t-1 -5.5q-1 -2 -5.5 -4t-10.5 -4l-16 -6l-8 -25l-11 -10q5 -4 15.5 -8.5t10.5 -6.5q0 -3 -5.5 -10.5t-4.5 -12.5q0 -3 3.5 -7t7.5 -8t10 -8q-2 -6 -4 -11
t-3.5 -9.5t-0.5 -6.5q0 -2 3 -5.5t7 -6.5t7.5 -6t4.5 -4q2 -2 -9 -13l-12 -12q9 -9 17 -16q7 -6 13 -11t8 -6q4 -2 1.5 -9.5t-2.5 -11.5t-5.5 -13t-3.5 -13q1 -2 4.5 -7.5t8.5 -10.5q5 -6 11 -14q-1 -7 -3 -12t-3 -9t0 -6q0 -2 3.5 -6.5t7.5 -9.5q4 -6 11 -13q-4 -7 -7 -12
q-2 -5 -4 -8.5t-2 -5.5q0 -1 3.5 -4t8 -6l9 -6t5.5 -4t0 -5t-2.5 -9t-3 -9t0.5 -5z" />
    <glyph glyph-name="l" unicode="l" horiz-adv-x="306" 
d="M109 586l48 -1l-8 -15l14 -16l-20 -14l8 -12q7 -11 10 -11q1 0 -5.5 -6.5l-7.5 -7.5q0 -1 2.5 -3.5t5 -6t5 -6.5t2.5 -4t-3.5 -4.5l-7.5 -7.5t-7.5 -7t-3.5 -4q-1 -2 5 -11t8 -11q1 -1 -1 -4.5t-4 -8t-4 -8t-2 -4.5t3.5 -5t7.5 -8l7.5 -7.5t4.5 -3.5t-1.5 -3t-5.5 -6.5
t-5.5 -6.5t-1.5 -4q0 -2 0.5 -5.5t0.5 -7.5t1 -10q-3 -5 -6 -9q-5 -8 -5 -11q0 -1 2.5 -6t5 -11t5 -11t2.5 -6t-3.5 -4t-7.5 -6t-7.5 -5.5t-3.5 -3.5q-1 -2 7.5 -8.5t10.5 -7.5q2 -2 -5 -9t-7 -12q0 -4 3 -13t4 -11q1 -3 -2.5 -9.5t-3.5 -8.5q0 -1 2 -5t4.5 -8.5t5 -8
t3.5 -4.5t-2 -3.5t-6 -4.5q-4 -4 -9 -7l19 -25l-17 -10l4 -27l19 13l5 -10l14 10l8 -4q3 -2 5.5 -3.5t3.5 -0.5q2 0 8 6q3 3 6 7l18 -10l17 21q4 -1 8 -3q8 -4 8 -5t4.5 2t9.5 6q6 4 14 9l8 -94l-15 10q-2 -4 -5 -8q-6 -8 -8 -8q-3 -2 -12 2q-4 2 -9 4q-5 -6 -9 -10
q-9 -9 -12 -9q-1 0 -5 0.5t-9 1.5t-9 2t-5 1q-1 1 -4 -1.5t-7 -5.5t-7.5 -5.5t-4.5 -2.5q-4 0 -13 3q-5 2 -11 4q-6 -7 -11 -11t-9 -7t-5 -3q-4 0 -13 7q-4 3 -10 7l-9 -18l-50 -8q2 6 4 11q2 4 3 7.5t2 4.5q0 3 -5 8q-3 3 -6 5l6 8q2 3 4 6.5t3 5.5q0 2 -9 9q-4 4 -9 7
l8 10q7 9 9 15q0 2 -3 5l-6 6l-8 6l8 10q3 4 5.5 8t2.5 6q0 3 -5.5 13t-6.5 12q0 1 2 4t5 6.5t5.5 6.5t2.5 4q0 2 -9.5 8.5t-11.5 8.5t4 10.5t7 12.5t-5 14.5t-6 12.5q0 1 2 4t4.5 6.5t4.5 6.5t2 4t-1.5 4l-3.5 7q-3 4 -5 9q2 7 5 13q5 12 5 16q-1 2 -4 5.5t-6 8.5
q-4 5 -9 11q3 6 7 10q2 4 4.5 7.5t2.5 5.5q0 1 -3 4l-6 6q-4 4 -8 7l8 10q3 4 5.5 7t2.5 5t-7 10.5t-9 10.5q0 1 2.5 4.5t6 7.5t6 7.5t2.5 4.5t-3 5.5t-6.5 9t-6.5 8.5t-4 5t-0.5 5t1.5 8.5t1.5 8.5t0.5 5q-2 2 -8 9.5t-6 9.5q0 3 5 11q3 4 6 9l-6 6l-4.5 4.5t-3.5 2.5t5 6
l7 7l-13 18q12 2 23 5q9 2 16.5 3.5t8.5 1.5z" />
    <glyph glyph-name="m" unicode="m" horiz-adv-x="481" 
d="M481 29h-1h1zM460 48q4 -5 8 -9q3 -4 6.5 -7t5.5 -3q-3 0 -18.5 -3t-34 -6t-33.5 -6t-16 -4l-7 30l4 8q4 8 4 12q0 1 -1.5 5t-3 9t-3 9t-1.5 6q-1 1 0 4.5t3 6.5q2 4 3 8q-4 9 -7 16q-2 6 -4.5 11.5t-2.5 7.5q0 1 1 5t3 8.5t4 8.5t2 5q0 2 -2.5 7.5t-5.5 12.5q-4 8 -8 17
q-1 5 -1 9q-1 5 -1 12q0 2 -3 8t-7 12q-4 7 -9 16q1 7 3 13q2 5 2.5 9.5t0.5 6.5q0 1 -1.5 5.5t-3 10t-3 10.5t-2.5 7l-9 10l-4 32l-5 -25l-8 -5l5 -16l-11 -22q-3 -7 -6 -11q-5 -10 -5 -13t4 -13l4 -10q-3 -4 -5 -8q-4 -8 -4 -11t5 -12.5t7 -11.5q1 -3 -5.5 -12.5
t-7.5 -12.5q0 -1 1 -6t2.5 -10.5t2.5 -10.5t1 -6q0 -2 -1.5 -5.5t-3.5 -8.5t-4 -11l12 -25l-10 -10q-9 -9 -9 -12q0 -4 5 -14q2 -5 5 -11q-2 -7 -3 -12t-2 -8.5t0 -5.5t1.5 -5.5t2.5 -8.5q1 -5 3 -11l-13 -15l2 -24l-25 -5v8q0 3 -1 5.5t-2 4.5q-3 3 -6 11q-3 4 -5 10
q2 5 3 10q1 4 1.5 8.5t-0.5 6.5t-3.5 5t-5.5 7q-4 4 -8 9l2 31l-22 13l-4 44q2 7 3 12t1.5 9t-0.5 6q-1 1 -4.5 5.5t-7.5 9.5t-8 9.5t-5 5.5t1 6t5 10.5t5 10t2 6.5t-3 7t-7 10.5t-7 10t-4 6.5t2.5 13.5t1.5 16.5q-2 2 -4 7t-4 10.5t-4 9.5t-3 4q-2 0 0 4t4 9l-14 32l-4 -24
l-12 -7l2 -11l-12 -15l12 -23l-16 -7l-3 -31l5 -23l-10 -12q-9 -11 -9 -14q0 -2 1.5 -6.5t3.5 -9.5q2 -6 5 -12l-16 -27l14 -31q-2 -8 -5 -14l-4 -10t-3 -7t1.5 -6t4.5 -9q3 -5 7 -11l-6 -12q-6 -11 -9 -13q-2 -1 0.5 -4.5t5.5 -8.5l8 -12l-7 -21l8 -19l-99 -14l2 30l13 19
l-11 27l14 14l-24 46l15 27q-3 9 -7 16q-3 6 -5.5 11.5t-2.5 7.5q-1 1 2.5 5t7.5 8l10 10q-7 8 -12 16q-5 6 -8 12t-3 8t11 11q4 4 11 9l-10 36l20 26q-6 9 -10 17q-4 7 -6.5 13t-2.5 8t3 5t7 6.5t8 6.5t5 4q1 2 0 7.5t-3 13.5t-4 19q4 5 8 9q7 9 7 11q-1 2 -1.5 8.5
t-1.5 14.5q-1 9 -3 20l28 22l-3 47l16 15l-11 30l34 23l11 38l24 -8q1 -7 3 -12l4 -10t7 -8q2 -2 4.5 -14t3.5 -16q0 -2 3 -5.5t6 -7.5q4 -4 9 -10q0 -9 1 -16q1 -6 1.5 -12t0.5 -8q0 -4 11 -8q4 -2 11 -4q-1 -8 0 -16q1 -7 3 -14.5t7 -13.5l-4 -26l23 -17l20 23q-3 9 -5 17
q-2 7 -3.5 12.5t-2.5 7.5q-2 1 1 3.5t7 4.5l10 6l-8 35l23 13q-2 9 -3 17q-1 7 -0.5 13.5t3.5 10.5l10 32l21 24l9 -30l24 -1l3 -29l18 -12l-7 -32l38 -12l-8 -34l29 -20l-9 -37l21 -24l-9 -18q-3 -7 -6 -13.5t-3 -8.5q-1 -4 9.5 -10t13.5 -8q1 -1 -0.5 -7t-4 -13t-5 -13.5
t-2.5 -7.5q-1 -2 2.5 -5.5t8.5 -7.5t11 -9l-4 -24q-2 -9 -3 -18t-1 -11q0 -5 6.5 -16t6.5 -15v-7v-11v-11.5t1 -7.5q2 -5 5.5 -11t5.5 -7q1 0 0.5 -4t-2.5 -9.5t-3.5 -10t-1.5 -6.5q0 -3 7.5 -10.5t7.5 -9.5t-1 -7t-3 -10q-2 -6 -4 -13z" />
    <glyph glyph-name="n" unicode="n" horiz-adv-x="314" 
d="M60 565q0 -6 1 -10q0 -4 0.5 -7t0.5 -5t3.5 -2.5t8.5 -0.5h12q0 -8 1 -13t1.5 -9t0.5 -6q0 -3 12.5 -7t16.5 -9q3 -5 0 -12t-2 -12q1 -2 4 -4.5t7 -4.5q4 -3 10 -5q1 -7 3 -12t2.5 -9.5t1.5 -6.5q1 -3 4.5 -5.5t8 -4.5t8.5 -3t5 -1t1 -3.5t1 -9.5t3 -12.5t7 -11.5l10 -28
q3 6 5 11t3 9t2 6q2 4 -3.5 7.5t-1.5 14.5l-2 33l13 20l-13 17q2 5 4 9q4 10 6 13t-6 12t-11 10q-4 1 1 9t6 11q1 2 -0.5 6.5t-3.5 9.5q-3 6 -5 13l6 22l-14 23l131 22l-9 -28l-13 -23q3 -7 7 -11q2 -5 4.5 -8t1.5 -5q-1 -4 -5.5 -11t-6.5 -12t5 -11.5t9 -11.5q1 -4 -3 -18
t1 -28l-7 -28l-7 -30l8 -33l-8 -31l11 -24q-3 -7 -5 -12q-5 -12 -5 -17q0 -7 7 -19q4 -6 8 -13q-3 -8 -5 -15q-2 -6 -3 -11t-1 -7q0 -3 6 -14.5t7 -14.5t-6.5 -14t-8.5 -15q-1 -5 5 -16t7 -14q1 -2 -1 -8t-4 -13t-4 -13.5t-1 -7.5q0 -2 1.5 -7t3.5 -10q2 -6 5 -13
q-2 -8 -4 -13q-4 -13 -3 -15q0 -2 1.5 -6t3.5 -9l4 -12l-9 -20l4 -27l-26 -15l-12 13l-16 21q0 5 1 9q2 10 2 13q0 2 -3 5.5t-6 6.5l-8 8l10 28l-22 23v15q0 6 0.5 11.5t0.5 7.5t-3.5 4t-8.5 4q-5 3 -11 6v12q0 5 0.5 9.5t1.5 6.5q0 2 -11 8q-5 3 -11 6v34q0 2 -3 5.5
t-7 7.5l-9 9q0 7 -2 14q-2 6 -5 13.5t-9 15.5l-13 6l-8 -31l9 -27l-9 -17l12 -28q-2 -7 -4 -11q-3 -9 -5 -13q-1 -2 1 -7l4 -10q3 -6 5 -14l-4 -10q-2 -5 -4 -9l-3 -6q-2 -2 -0.5 -7.5t3.5 -11.5l6 -16l-10 -19l12 -21l-85 -26l1 13q-1 6 -3 10q-4 10 -6 9q-2 0 -0.5 4
t3.5 9l4 10t2 7q0 3 -5.5 10t-9.5 7q-2 0 0 4.5t4.5 10.5t5.5 11.5t3 8.5q0 2 -2.5 7.5t-5.5 10.5q-4 6 -8 13l18 25l-13 17l-8 37l6 14q2 5 4 10.5t2 7.5t-3 5.5t-7 7.5t-9 10l16 27l-16 17l9 28l-15 23l10 28l-16 20l11 26l-15 29l4 10q2 4 3 8t2 6q0 2 -2.5 8t-5.5 13
l-8 18l14 27l-14 21l25 14z" />
    <glyph glyph-name="o" unicode="o" horiz-adv-x="343" 
d="M320 273q1 -1 2.5 -6t2.5 -11t2 -11t2 -7q2 -3 -6 -12.5t-8 -13.5q0 -2 1.5 -7.5t3.5 -11.5t3 -11t1 -7q-1 -3 -8.5 -11.5t-7.5 -13.5q0 -2 1 -7.5t2.5 -11.5t2 -11.5t-0.5 -8.5q-2 -5 -5.5 -12t-13.5 -21q-3 -11 -5 -20q-2 -8 -3.5 -15t-1.5 -8q-1 -2 -4.5 -2.5
t-8.5 -0.5h-13q-7 -5 -12 -9t-8.5 -7.5t-5.5 -4.5q-1 -2 -5.5 -3.5t-10 -3t-10 -1.5t-5.5 1t-6 -1.5t-11.5 -6.5t-12 -7t-7.5 -3q-2 1 -5.5 4t-8.5 7t-11 10q-7 -8 -13 -13q-5 -5 -10 -8t-6 -1q-2 4 -11.5 6.5t-11.5 2.5q-1 1 -4 9t-3 11q0 2 -3.5 4t-8.5 4l-12 6l2 16
q1 6 1.5 11.5t0.5 7.5q0 4 -9.5 8t-11.5 6q-1 1 0.5 6.5t3.5 12t4 12t2 7.5q1 3 -6 10.5t-8 11.5q-1 1 0.5 6t3.5 10q3 6 6 13q-6 8 -10 15q-9 14 -9 18q0 2 2.5 7t5.5 10q4 6 9 14l-18 22q1 7 2 13q1 5 1.5 10.5t1.5 7.5q1 5 -4 17.5t-5 17.5q0 3 1.5 10t4 14.5t4.5 14
t2 8.5q1 4 -8.5 13t-10.5 13q0 2 1.5 8.5t3.5 14.5t3.5 15t1.5 9t-2 7l-4 10q-3 6 -5 13q3 7 6 13q2 5 5 10.5t5 7.5t2 7.5t1 10.5q0 6 1 13q3 3 7 6q6 5 10 6q2 1 5.5 5t7.5 8t9 10l24 -5l17 18q7 -1 13 -1q5 -1 10 -1h7q1 0 5.5 3t9.5 7l12 10q6 -1 11 -2t8.5 -1.5
t5.5 -0.5q2 -1 5.5 1.5t7.5 4.5q4 3 10 7l28 -15l20 9l13 -21l30 6l3 -35l5 -10t3 -7.5t2 -5.5q0 -4 -5 -14q-3 -5 -5 -11q4 -6 8 -11q3 -5 6.5 -8.5t5.5 -3.5t-0.5 -3.5t-6 -9t-7 -10t-3.5 -5.5q-1 -2 2 -6t6 -9q4 -5 8 -11l-14 -36q3 -10 7 -17q3 -7 5.5 -12t2.5 -7
q0 -1 -2.5 -5.5t-6 -9t-6 -9t-2.5 -5.5q0 -3 7 -10.5t7 -11.5t-6 -14.5t-3 -13.5zM236 300q-4 6 -7 11q-7 10 -7 14q0 2 3 8t6 12.5t5 12t1 5.5q-2 0 -4.5 3t-4.5 7q-3 4 -6 9l8 23l-16 18q3 4 5 8q4 8 3 11q-5 5 -5.5 10.5t-0.5 10.5t2 10l-14 5l-28 -1q-5 -5 -10.5 -6
t-10.5 -1t-11 2l-4 -10q-2 -4 -3.5 -8t-1.5 -5q-2 -3 -9 -10t-6 -9q1 -3 3.5 -10t1.5 -12q-1 -3 -2 -7t-3 -9t-5 -11q4 -3 7 -6q6 -6 5 -10q-2 -4 -4.5 -16t-2.5 -15q0 -5 3 -12q2 -4 4 -9q-3 -9 -6 -17q-2 -7 -4 -13t-2 -8q0 -5 5.5 -15t5.5 -12t-2 -7t-4 -11q-3 -7 -5 -15
q3 -3 6 -7l4 -6t3 -4t-0.5 -6t-3.5 -10.5t-3.5 -10.5t-0.5 -7q2 -4 7.5 -11.5t3.5 -10.5t-5.5 -11.5t-1.5 -11.5q1 -1 3 -2.5t5 -3.5t7 -4q-1 -4 -1 -8v-6.5t1 -4.5q1 -2 4 -4l6 -4q4 -2 7 -4l23 2l16 -3l4 30q10 1 17 10q4 4 7 9q6 9 3.5 20t-1.5 14q0 1 2 4.5t4 8.5
q3 5 5 11q-2 6 -5 10q-2 4 -4 7.5t-2 5.5q-1 1 1 4.5t4 8.5q3 5 7 11l-2 34q-5 5 -5.5 11t1.5 11q2 6 5 13z" />
    <glyph glyph-name="p" unicode="p" horiz-adv-x="347" 
d="M338 543l3 -32l-22 -23v-38l-34 -25l-6 -34l-27 -17l-5 -36l-31 -9v-27l-34 -13l-13 -27l-23 -6l4 -27q-6 -6 -8 -14.5t-2 -16.5q0 -10 2 -20q-4 -8 -4.5 -14t-0.5 -11t2 -9l-12 -32l14 -23l-16 -38q5 -9 7 -15.5t2 -10.5t-2 -7l9 -33l-87 -18l-2 4l-10 37l13 42l-15 36
l13 36l-15 38l13 36q-7 10 -11 18q-5 7 -8 13.5t-2 8.5t2.5 7.5t3.5 12.5q2 8 5 17l-18 37l13 51q-6 9 -7 19.5t-1 19.5t1 14.5t0 5.5t-4 4t-6 9.5t-5 11t-1 7.5q2 2 5 7.5t6 10.5l8 14q-8 9 -14 18q-5 7 -8.5 13.5t-1.5 8.5t3 7.5t3 12.5q2 8 3 18l40 -4l36 17l25 -11
l49 23l16 -6q6 -2 12 -3t8 1q1 2 7 6l12 8t11 5.5t6 -0.5t6 -4t10 -3q6 -2 14 -2l33 17l26 -10l21 -26zM217 484l-24 -5l-13 8l-12 -18l-17 5l-25 -9l10 -26q-2 -3 -4 -7q-4 -8 -6 -8t-1 -3t3 -6.5t3.5 -7t1.5 -4.5q0 -2 -1 -7.5t-3 -11.5q-2 -7 -3 -15l4 -24q3 7 7 12
q3 5 7 8.5t9 3.5l8 20q6 1 10 3t7.5 2.5t4.5 1.5q2 2 0 9q-1 4 -2 7l12 9q-2 6 -2 12q0 5 0.5 11t4.5 11z" />
    <glyph glyph-name="q" unicode="q" 
d="M376 28l-60 -66l-7 16l-23 1l-4 19l-22 5l-3 21q-2 -1 -6 -5t-7.5 -9t-6.5 -9t-4 -4q-2 0 -5 1t-8 3t-11 4l-10 -12q-4 -5 -7.5 -8t-5.5 -1q-3 15 -9 17.5t-12 -1.5t-10 -10.5t-4 -9.5l-27 12l-27 -16q-4 7 -8 13q-3 5 -5.5 9.5t-2.5 6.5q0 4 -10 6l-10 2v39q0 5 -10 7
t-11 4q0 1 0.5 6t2 11.5t3 12t1.5 8.5q1 5 -6 11.5t-7 8.5t2 7t4 11q3 7 7 16q-6 5 -11 10q-5 4 -8.5 8t-2.5 6q0 1 2.5 6.5t4.5 11.5t4 11t1 7q-1 4 -7.5 15.5t-8.5 12.5q0 1 2 5.5t4 10.5l4 12t2 10q-2 8 -9 12.5t-7 7.5t4.5 16t6.5 19q0 8 -5 16q-3 4 -5 8q1 9 3 17
q2 7 2.5 13t1.5 8q0 4 -8 10l-8 6l6 14q2 5 4 10.5t3 7.5q0 7 -3 16q-2 5 -4 11q6 7 10 13q8 12 11 17q0 1 0.5 5t0.5 9v11q5 2 9 4t7 2.5t5 1.5t4 4.5t5 7.5t7 10q7 2 13 3q5 1 9.5 1.5t6.5 1.5q2 0 4 3l4 6q3 4 6 9h29l33 19h21l15 -20q7 4 13 8q5 3 9 5l6 3q3 1 6.5 -6.5
t4.5 -11.5q1 -3 11 -1q4 1 9 3l30 -5q-1 -8 -1 -14q0 -5 -0.5 -10t1.5 -6q3 -2 7 -7t6 -8q1 -4 -2 -13.5t-4 -16.5q-1 -3 1 -6t5 -5l6 -4t3 -3q1 -3 -5 -13.5t-7 -13.5q-1 -2 1.5 -5.5t5.5 -6.5q4 -4 7 -8q-4 -10 -8 -19q-3 -8 -5.5 -14.5t-2.5 -8.5q0 -4 6.5 -10.5
t7.5 -11.5t-5 -17.5t-6 -16.5t7 -16t8 -16q0 -2 -2.5 -6.5t-5.5 -9.5q-4 -6 -9 -13q2 -10 5 -17q2 -7 3.5 -12t2.5 -7q1 -1 -1 -5.5t-4 -9.5q-3 -6 -6 -13l4 -12q2 -5 3.5 -10t1.5 -7t-2 -6t-4 -9q-3 -5 -5 -11l2 -14q1 -6 1.5 -12t0.5 -10l11 -6l-4 -21l18 -6l-2 -18
l20 -14l-6 -22zM185 72l19 13q-1 1 -1 3t-0.5 3t-0.5 3l-5 3l-14 1l-2 18l-14 -2l25 33l16 17q3 1 12.5 2t10.5 7l-4 15l14 21l-15 26l11 27l-5 10q-4 10 -3 15q0 2 1.5 7t3.5 10t5 12l-15 34q5 9 9 15q3 5 6 9.5t1 4.5q-4 0 -9 11l-6 12l5 28l-18 10l4 30l-18 6l-17 -13
l-12 14l-17 -3q0 -1 -3 -4t-7 -6.5l-8 -7t-5 -4.5q-8 -12 -6 -22q1 -4 4 -8l-10 -22l6 -14l-14 -21q5 -6 6 -13.5t0 -13.5q-1 -7 -3 -14q3 -5 6 -9q2 -4 4 -6.5t2 -3.5q-1 -2 -2.5 -6.5l-3.5 -10.5q-3 -7 -6 -15l16 -16q-4 -7 -7 -11q-2 -5 -4 -8t-1 -5q1 -3 4.5 -11.5
t3.5 -10.5t-1 -6t-3 -9l-4 -12q4 -6 7 -10q2 -4 4 -7.5t2 -4.5q-1 -1 -0.5 -3.5t0.5 -4.5v-7l-6 -10q-2 -4 -4 -7t-1 -5q2 -2 9.5 -3.5t6.5 -5.5q-1 -2 -1 -6v-9v-11l16 -3l4 -16z" />
    <glyph glyph-name="r" unicode="r" horiz-adv-x="336" 
d="M353 6q5 -7 -0.5 -14t-15.5 -13q-11 -7 -28 -14l-25 26l1 22l-24 34l4 26l-26 30l3 25l-18 32q-2 5 -5 9q-5 7 -8 11q-2 1 -5 3.5t-7 5.5q-4 4 -9 7l6 32q-5 1 -9 4q-8 4 -8 8q0 2 0.5 6.5t1.5 9.5l2 12l-19 24q3 10 -1 18.5t-8 12.5l-22 -30q3 -8 4 -16q1 -7 -1 -14
t-8 -12q3 -8 4 -16q1 -7 -0.5 -14.5t-9.5 -12.5l13 -27l3 -38q-2 -4 -5 -8q-2 -4 -5.5 -9t-5.5 -11q3 -1 6.5 -7t6 -13.5t1.5 -15.5t-8 -13q1 -1 4.5 -5t5 -10t0.5 -12.5t-7 -11.5l14 -26l-104 -8q1 4 3 8q1 3 2 6.5t1 5.5t-1.5 5.5t-3.5 6.5l-4 8q2 5 3 11q0 5 -1.5 11
t-6.5 12l3 29q2 3 4 7q2 3 3.5 6.5t1.5 6.5q0 6 -7.5 15t-7.5 13q0 1 1.5 6t4 10.5t4 11t1.5 7.5q0 5 -7 16t-9 15q-1 1 1 5.5t4.5 9.5t5.5 9t3 6q1 2 -1.5 5.5t-5.5 7.5l-9 9l6 18q2 7 4 13.5t2 8.5t-2.5 6t-5.5 9q-4 5 -8 13l4 18q2 7 3 13t2 8t-1.5 6.5t-5.5 9.5l-8 12
l15 35l-15 33l11 25l-19 27l3 26l-3 21q8 -2 16 -2q7 0 14.5 1.5t14.5 8.5l28 -5q6 5 14 8q6 2 14 3t16 -3l20 14q7 -2 13 -3q5 -2 9.5 -2.5t6.5 -0.5q4 0 13 9l9 9l30 -11l22 17l21 -12l28 17l32 -6q4 -10 6 -20q2 -8 2 -17t-2 -15q0 -1 1 -2t1 -2t1 -3q-2 -1 -3.5 -1.5
t-2.5 -1.5q-2 -1 -2 -2l1 -26l-14 -10l2 -12q1 -5 1 -9t-2 -5q-9 -6 -8 -16.5t-2 -13.5t-10 -5q-4 -1 -7 -2l-3 -20l-18 -7l-3 -22l-18 -4l9 -11l7 -31q2 -5 5 -9q2 -4 4 -6.5t2 -4.5t-0.5 -7.5t-0.5 -11.5q-1 -7 -1 -15q5 -8 8 -17t4 -17q1 -10 0 -18q8 -4 13 -8
q5 -3 8.5 -6t2.5 -5q0 -2 -2.5 -7.5t-5.5 -11.5t-4.5 -12t-0.5 -7q2 -2 5.5 -6.5t8.5 -9.5q5 -6 12 -13l-11 -30l18 -17l2 -26q5 -8 5.5 -14t-0.5 -11t-2 -8.5t0 -4.5l7.5 -15t6.5 -12q4 -6 7 -12zM220 497l-25 -9l-18 8l-13 -14l-24 2l-19 -7l13 -27l-12 -9l9 -19l-6 -5
l4 -20l16 12l16 4l14 19l20 4l5 27l13 8z" />
    <glyph glyph-name="s" unicode="s" horiz-adv-x="313" 
d="M279 598q3 -6 5 -13q2 -6 0.5 -13t-6.5 -13l16 -28l-16 -27l13 -22l-16 -29l17 -24l-13 -21l13 -27l-89 -10l-7 18q3 7 3 12t-2.5 8.5t-11.5 3.5q1 12 0 20q-1 7 -3.5 10.5t-8.5 -2.5l-25 -14v-23l-23 -3l2 -20l24 -11l7 -14l8 -4q3 -2 6 -3.5l5 -2.5t4 -11q1 -4 1 -10
l30 -7l5 -19l32 -13l3 -25l32 -7l5 -30l32 -30l-4 -35l-26 -11l-1 -17l-25 -9l-3 -41l-27 -5l-14 -37l-34 -9l-12 -26l-24 -1l-19 -30l-20 2l-36 -10q-10 14 -17 25q-6 9 -9.5 16.5t1.5 7.5l12 24l23 -9l12 25l23 -3l4 28l28 7q5 7 9 14q3 5 6 11t3 8q-1 2 2 4.5t7 4.5
q4 3 9 5l-5 14l23 16l-7 26l-29 13q-1 7 -1 12v15q0 2 -5 2.5t-10 0.5q-6 0 -14 -1l-4 28l-37 5l-12 26l-36 9l-9 12l-24 11l-9 26l-20 14l2 34l25 4l-3 23l23 21l-3 32l32 18l4 27l46 10l9 22l45 13l17 36l38 4l8 24q13 0 24 -1q9 -1 17.5 -1.5t10.5 -0.5q2 -1 1.5 -5.5
t-2.5 -9.5q-2 -6 -5 -14z" />
    <glyph glyph-name="t" unicode="t" horiz-adv-x="318" 
d="M5 538q10 1 20 1h15t9 1q1 0 5.5 4t10 8t9.5 7t6 2q1 0 8 -1t14.5 -2t14 -1.5t8.5 -0.5t7 3t11 7q7 4 15 9q10 -2 19 -4q8 -2 14 -2t8 2q4 4 15 12q5 4 13 10l42 -5l28 17l21 -5l-4 -105l-16 3l-20 -19l-27 13q-2 -7 -3 -11q-4 -11 -5 -11h-6t-9 1t-11 2l-9 -25l8 -10
q3 -4 5.5 -7t0.5 -5t-3.5 -9.5t-3 -16t-2.5 -16.5t-1 -9q0 -2 1 -7.5t2.5 -12.5t2.5 -13t0 -8q-2 -3 -3.5 -8.5t-3.5 -11.5q-3 -7 -5 -14l6 -78l-12 -21l6 -16q2 -6 3.5 -12t0.5 -8l-7.5 -15t-3.5 -16q0 -2 1 -8t1.5 -13t1 -13t0.5 -9q-2 -5 -6 -15.5t-3 -15.5q1 -2 2 -7
t3 -10q2 -6 4 -13l-3 -41l-75 -21l1 35l-11 32q3 10 6 19q2 8 4.5 14t2.5 8t-2 8t-4 12.5t-4 12t-3 7.5t1.5 6t5.5 8.5t5.5 9t2.5 7.5q-1 2 -3.5 9.5t-5.5 15.5q-4 9 -7 20l8 12q3 5 5.5 9.5t2.5 6.5q0 1 -2 6.5t-4.5 11.5t-4.5 11.5t-3 7.5q-2 2 0 6.5t4 9.5q3 5 7 12
l-15 41l12 26l-16 35l8 30l-9 23l-11 8l-21 -12l-18 11l-23 -12l-21 -5z" />
    <glyph glyph-name="u" unicode="u" horiz-adv-x="343" 
d="M131 539q2 -6 2 -13q0 -6 -1.5 -13t-6.5 -12l11 -32l-6 -20q1 -9 1 -17t-1.5 -15.5t-6.5 -15.5l15 -25l-10 -24l7 -20q-3 -6 -6 -11q-6 -11 -4 -14q0 -2 2.5 -6t5.5 -9q4 -5 7 -11l-15 -24l4 -16q1 -7 1 -14.5t-4 -15.5l14 -20l-14 -20l17 -32q-4 -5 -6 -10t-1.5 -11
t5.5 -11q-3 -7 -3 -14q-1 -6 1 -12.5t9 -11.5q3 4 7 7q8 5 22 1q4 5 8 9q3 4 5.5 7.5t2.5 5.5q0 4 6.5 0.5t17.5 2.5q-2 4 -1 10q1 5 3 12t8 15q1 2 -0.5 5l-3.5 7t-2.5 9.5t4.5 13.5q-3 4 -5 9q-3 10 3 23l-5 23q3 5 4 10t0.5 11t-4.5 12l12 22l-12 18l2 12q1 5 0.5 11.5
t-3.5 13.5q1 6 0 13q-1 6 -2.5 12.5t-6.5 12.5l10 24l-11 22l10 21l-14 22q1 6 3 11q4 11 7 12q2 1 0 4.5t-5 8.5l-8 12q2 5 3 12q2 13 -1 28v30l121 15l-13 -23q4 -4 5 -9q2 -11 -7 -24q-1 -1 0 -5t2 -9.5t0 -13t-5 -14.5q-1 -3 8 -14q4 -5 10 -11q-3 -5 -6 -9
q-2 -4 -4 -7.5t-3 -5.5t1.5 -5.5t5.5 -7.5l8 -10q-4 -6 -5 -12q-1 -5 0.5 -12.5t7.5 -14.5l-6 -26q-4 -6 -7 -10q-7 -11 -7 -15q0 -7 5 -15l5 -10q-2 -4 -2 -8t1.5 -9.5t7.5 -12.5q1 -2 -1 -6t-5 -8q-4 -5 -9 -10q4 -9 7 -17q2 -8 3 -15.5t-3 -13.5q-2 -2 -4 -5t-4 -7
t-4 -12q0 -2 2.5 -4.5t5.5 -6.5t5 -10t-1 -15q-1 -4 -4.5 -9t-8.5 -16l13 -19l-9 -23l4 -30q-5 -1 -9 -4q-11 -5 -20 -16q-4 0 -9 -2t-11 -5t-15 -10q-4 0 -8 1q-3 1 -6.5 1t-5.5 1q-4 1 -12 -6.5t-23 -4.5q-7 -5 -13 -8t-12.5 -4t-14.5 3l-23 -21q-6 0 -13 -1q-6 -1 -13 -3
t-13 -6q-4 1 -9 4q-5 2 -12 6t-15 11q1 5 1 10t-1.5 11t-6.5 14l8 18l-12 19q1 5 1 12q0 5 -1 13t-3 17q1 5 2 11q0 5 -0.5 12t-2.5 15q1 6 2 11t1.5 9.5t2.5 8.5q2 3 -0.5 6.5t-5.5 6.5q-4 4 -9 7l7 30l-12 28q2 7 3 16q1 7 0 15.5t-6 16.5l10 29l-15 23q2 7 5 12
q5 10 7 16q1 4 -2 14t-5 15t2 11.5t6 11.5q2 2 0 7l-4 10q-3 5 -7 12q1 5 2 9q2 10 1 16q-1 4 -5 14q-2 4 -3 9q2 5 4 11q3 10 -1 24l113 15v-22z" />
    <glyph glyph-name="v" unicode="v" horiz-adv-x="328" 
d="M120 522l11 -16l-11 -18l19 -28l-12 -25l18 -29l-12 -28l24 -21l-9 -28l15 -39q-3 -5 -6 -9q-5 -8 -5 -12q0 -5 9 -16q4 -6 9 -12l-15 -20q6 -6 10 -12q3 -5 3.5 -12t-5.5 -12l15 -44q0 6 1 13q1 5 2 12t3 13q1 6 2 13q1 5 2.5 11.5t5.5 11.5q1 1 0.5 4.5t-2.5 6.5l-4 8
l14 23l-5 18l9 23l-7 30q2 6 5 10q2 4 3.5 7.5t1.5 5.5q0 3 -4 13q-2 4 -3 10l4 24l-7 20l13 28l-6 29q2 6 4 11t3 9t2 6t-1.5 5.5t-5.5 8.5l-8 12l9 20q-2 5 -3 10t-0.5 11t5.5 12l-8 20l124 14l-11 -14l6 -24l-17 -22l10 -24l-11 -22q4 -8 8 -13q3 -5 6 -8.5t5 -2.5t0 -2
t-5 -7q-4 -4 -9 -11l13 -25l-16 -17l6 -24l-2 -10q-1 -4 -1 -7.5v-5.5t-3.5 -6t-8.5 -8q-5 -5 -12 -10q4 -10 8 -17q3 -7 5.5 -12l3.5 -7q0 -2 -3 -6t-7 -9l-10 -12l12 -28l-12 -16q-5 -6 -9 -12t-3 -7t1.5 -6t1 -11.5t1 -12.5t1.5 -8q0 -2 -4 -5.5t-9 -7.5q-6 -4 -13 -10
v-50l-19 -22l4 -30l-17 -32l10 -19l-15 -21l-7 -31l-32 13v15q0 6 -0.5 11.5t0.5 7.5t-2.5 3t-8.5 3t-13 3q-1 6 -1 10v14q0 2 -4.5 4.5t-9.5 4.5q-6 3 -13 6l10 37l-23 11l4 31l-28 25l7 33l-25 25l12 40q-7 8 -11 15q-4 6 -7 11.5t-3 7.5t0.5 7t2.5 10l4 14l-21 30
q0 7 1 13q1 5 1 9.5t1 6.5t-3 7t-9 10l-14 14q2 8 3 16q1 7 1.5 14.5t-1.5 14.5l-15 28l16 24l-24 23l129 23z" />
    <glyph glyph-name="w" unicode="w" horiz-adv-x="498" 
d="M136 528q-2 -5 -4 -9q-4 -10 -4 -11t1.5 -5t3 -9t3 -9.5t1.5 -5.5q0 -5 -3 -11q-2 -4 -3 -8q4 -9 7 -16q2 -6 4 -11.5t3 -7.5q0 -1 -1 -5t-3 -8.5t-4 -8.5t-2 -5q-1 -2 2 -7.5t6 -12.5q4 -8 8 -17q-2 -6 -3 -10q-2 -10 -2 -14q0 -6 9 -20l10 -16q-1 -7 -3 -13
q-2 -5 -3 -10t0 -6q0 -2 1.5 -7.5t3.5 -11.5q2 -7 5 -16l-5 -10l-3.5 -7t-1.5 -5q-1 -2 1.5 -5t5.5 -8q4 -5 7 -11l-5 -18l12 -25l7 20l-4 22l14 20l-4 20l18 15l-10 20l5 10l4 8t2 6q0 3 -4 13l-4 10l4 8q2 3 3.5 6t1.5 5q0 3 -5 12.5t-7 11.5q-1 3 5.5 12.5t7.5 12.5
q0 1 -1 6t-2.5 10.5t-2.5 10t-1 6.5q0 1 1 5t3 9t5 11l-12 25q5 6 9 10l7 7t3 5t-1.5 5.5t-3.5 8.5q-3 5 -5 11q2 6 3 11t1.5 9t0.5 6q-1 1 -2 5t-2 9q-2 5 -3 11l13 15l-2 24l25 5v-8q0 -3 0.5 -6t2.5 -4q1 -1 2.5 -4l3.5 -7l5 -10q-2 -6 -3 -10q-1 -5 -2 -9t1 -6
q1 -2 3.5 -5t5.5 -7q4 -4 8 -9l-2 -31l22 -13l4 -44q-2 -7 -3 -12t-1.5 -9.5t0.5 -5.5q1 -2 4.5 -6t7.5 -9t7.5 -9.5t5.5 -5.5q1 -1 -1 -6t-5 -10.5t-5 -10.5t-2 -6q0 -2 3 -7t7 -10.5t7 -10.5t4 -6q1 -2 -2.5 -13.5t-1.5 -16.5q1 -2 3.5 -7.5t4.5 -10.5t4 -9t3 -4
q2 0 0 -4.5t-4 -9.5q-3 -6 -7 -13q2 -6 6 -10q2 -4 5 -7t5 -3q1 0 0 -3.5t-3 -8.5l-6 -12q3 -8 7 -15l5.5 -11t4.5 -4q1 1 1 4.5v8.5v12l9 16l-5 23l14 18l-8 16l12 15l-12 23l16 7l3 31l-5 23l4 12q2 5 3 8.5t1 5.5t-1.5 6t-3.5 9q-3 5 -5 13l16 27l-14 31q2 8 5 14l4 10
t3 7q0 2 -2 6t-4 9q-3 5 -7 11l6 12q6 11 9 13q1 1 -1 4.5t-5 8.5l-8 12l7 21l-8 19l122 15l-2 -30l-13 -19l11 -27l-14 -14l12 -42l-15 -27q3 -9 7 -16q3 -6 5 -11.5t3 -7.5q0 -2 -3 -5.5t-7 -7.5l-10 -10q2 -10 5 -18q2 -7 4 -12.5t2 -7.5t-3.5 -4.5t-7.5 -6.5
q-5 -4 -11 -9l10 -36l-20 -26l6 -18q2 -7 4.5 -12.5t2.5 -7.5t-3 -5t-7 -6.5t-8 -6.5t-5 -4q-1 -2 0 -8.5t3 -13.5l4 -18q-7 -3 -12 -7q-5 -3 -8.5 -6t-2.5 -4q0 -2 1 -8.5t2 -14.5q1 -9 3 -20l-28 -22l3 -47l-16 -15l11 -30l-16 -9l-2 -41l-24 8q-1 7 -3 12q-4 10 -11 18
q-2 2 -4.5 14t-3.5 16q-1 2 -10 4q-4 1 -9 2l-2 16q-1 6 -1 12v8t-3.5 4t-7.5 4q-5 2 -11 4q0 8 -1 16q-1 7 -2.5 14.5t-6.5 13.5l4 26l-23 17l-20 -23q2 -9 5 -17q2 -7 3.5 -12.5t2.5 -7.5t-8 -8l-10 -6l8 -35l-23 -13q2 -9 3 -17q1 -7 0.5 -13.5t-3.5 -10.5l3 -38l-26 -6
l-7 28l-24 1l10 26l-27 8l7 32l-29 13l6 33l-29 20l9 37l-30 23q1 9 3 17q2 7 2.5 13.5t1.5 8.5q1 4 -9.5 10t-13.5 8q-1 1 0.5 7t4 13t5 13t2.5 8q0 4 -11 13q-5 4 -11 9q2 12 4 23q2 9 3.5 17.5t1.5 11.5t-4 7t-9 8.5t-9 8t-4 5.5v6.5v11.5v11.5t-1 7.5q-2 5 -7.5 11
t-7.5 7q-2 0 -1 4t3 9.5t3.5 10t1.5 6.5q0 3 -7.5 10.5t-7.5 9.5t1 6.5t3 9.5l4 14q-5 6 -9 10q-9 9 -12 9q-1 0 18 3t42.5 7.5t43.5 8.5t21 5z" />
    <glyph glyph-name="x" unicode="x" horiz-adv-x="365" 
d="M116 586q4 -7 8 -13q4 -5 9 -11t13 -11l-4 -35l34 -32l-10 -24l17 -30l13 30q0 7 2 13q2 5 5.5 11t11.5 11q1 11 4 22q2 9 6 18t12 16l2 39l18 11l2 26l123 -46l-26 -13l3 -32l-33 -26l-4 -41l-16 -14q-6 -6 -11 -11.5t-6 -7.5t-0.5 -8.5t1.5 -12.5q1 -8 3 -16l-39 -30
l5 -31l-22 -34q7 -7 13 -12q5 -5 10 -9t7 -5t2 -6.5t-1 -11.5q-1 -8 -3 -17l24 -19l-4 -31l43 -39l-13 -41l30 -19l-12 -29l28 -21l-80 -44q0 6 -2 12q-2 5 -5 11t-9 12q-1 8 -4 17q-2 8 -6.5 16.5t-12.5 16.5l-7 37l-24 11l4 28q-7 11 -14 19q-6 7 -12.5 12.5t-12.5 3.5
l-4 -44l-28 -19l2 -31l-26 -21l5 -29l-31 -30q0 -7 -2 -15q-2 -7 -4 -14.5t-7 -13.5l-9 -33l-73 33v26l23 13l-8 26l26 28l-2 28q7 5 11 11q4 5 6 12.5t0 15.5l32 30l-8 35l30 30q0 9 1 17q1 7 3.5 13.5t8.5 11.5l7 41l-26 13l8 32l-26 15l5 33l-26 13l2 43l-35 20l4 32
l-28 16l109 52v0z" />
    <glyph glyph-name="y" unicode="y" horiz-adv-x="354" 
d="M240 603q1 -1 21 -8.5t43 -16.5q27 -11 61 -24l-21 -21l3 -21l-26 -23l-4 -38l-29 -21l2 -10q2 -10 2 -13q-1 -2 -4.5 -5.5t-7.5 -8.5l-11 -11v-13q0 -5 0.5 -9.5t0.5 -6.5t-3 -5.5t-7 -8.5t-9 -11q2 -3 4 -7q3 -7 2 -10q-1 -2 -4.5 -5.5l-7.5 -7.5q-5 -4 -11 -9
q3 -6 7 -11q2 -5 4.5 -8.5t1.5 -4.5q-3 -5 -10 -11q-4 -4 -9 -8q3 -5 6 -9q2 -4 4 -7t2 -5t-2.5 -5t-5.5 -7q-4 -4 -7 -9l-4 -36l7 -38l-23 -21l14 -32l-14 -21l13 -20l-11 -25l9 -17l2 -18l-92 -6l15 21l-11 27l7 21l-16 29l14 18l-11 32l16 20l-16 33l16 25l-21 30l13 22
l-16 26l-11 25l-20 10l7 36l-29 18l4 14q2 5 2.5 10t-1.5 6q-3 1 -14.5 8.5t-13.5 12.5q-1 2 0 6.5t2 9.5t3 11l-26 24l6 28l-27 28q28 12 51 23q10 5 18.5 8.5t16.5 7.5l16 8q-1 0 2.5 -5t8.5 -11q5 -7 11 -16v-27l11 -20l-4 -19l22 -16l-3 -26l19 -12l-2 -26q3 -6 7 -3
t7 8q4 6 8 17l-3 25l21 14l-6 29l19 16l-3 32l18 14l-4 28l16 10z" />
    <glyph glyph-name="z" unicode="z" horiz-adv-x="310" 
d="M28 581l48 -19l32 24l33 -19l33 22l40 -16l28 20l25 -11l29 17l33 -7l8 -30l-29 -7l1 -21l-17 -18l-2 -26l-25 -22l-1 -42l-21 -24l3 -33l-25 -27v-34l-30 -24l7 -44l-28 -22l6 -12q2 -5 4 -8.5t1 -5.5q-2 -4 -14 -16l-13 -13l7 -26l-32 -15l8 -24l-11 -18l26 11l18 -11
l26 20l32 -6l21 21h26l7 -81l-36 1l-41 -25l-21 10l-33 -26l-25 17l-30 -27l-26 21l-49 -31l-18 25l18 35l-5 31l29 21l-6 30l26 21l-5 23l22 31l-8 20l27 28l-12 30l23 24l-9 33l34 27l-7 28l35 22l-14 26l22 25l-8 26l-38 -20l-24 19l-29 -18l-21 16l-25 -21l-4 92z" />
    <glyph glyph-name="braceleft" unicode="{" horiz-adv-x="233" 
d="M212 548l-19 7v-9v-7.5t1 -4.5q0 -1 -3.5 -0.5t-8 1.5t-8.5 1.5t-5 0.5t-2.5 -4t-3 -9t-2.5 -9.5t-1 -5.5q0 -3 -10 1l-10 4l2 -25l-19 -12l13 -17l-1 -17l16 -12q5 -6 9 -10q3 -4 6 -7.5t4 -4.5t0.5 -4.5t-1.5 -7t-1.5 -6.5t0.5 -4q2 -2 7 -4.5t7 -5.5q1 -2 3 -5.5
t4 -7.5q3 -4 6 -9l-11 -12q2 -6 5 -11q6 -11 9 -13t-1 -8l-4 -6l-17 -7l4 -18l-28 -17l10 -12q3 -2 7 -3q8 -2 10 -2q1 0 1.5 -3.5t0.5 -7.5t-1 -10l20 -10l-1 -26l-18 -6l-1 -26l-20 -5l-2 -24l-22 -9l7 -23l-12 -11l14 -21l-5 -12l8 -2q3 -1 5.5 -2t4.5 -1q1 -1 5 -9
q2 -4 4 -9q6 1 12 1q9 0 21 -5q1 -1 4 -0.5t7 0.5t9 1l3 -92l-17 -4l-15 12l-27 -6l-8 23l-20 -8l-13 20q-8 -1 -13 -2t-9 -1.5t-4 1.5q-1 2 -5 13.5t-4 15.5q0 2 -4 3t-9 1t-12 -1q-1 7 -3 12t-3 9t0 5q0 3 -9 5l-10 2l2 26q-3 8 -5 15q-5 13 -5 16l2 2q1 1 5 3q3 2 7 4
q-2 8 -4 15q-2 6 -3 11t-1 7t10.5 3.5t12.5 1.5t-1 10t-5 11q-2 0 2 1.5t9 3.5t13 5l-9 18l9 13l-21 10v14l-26 6v16h-25l2 40l18 -7l8 12l23 -8l12 22l14 -11l8 24v8q0 3 -0.5 6t0.5 4q0 3 -7 10l-8 8l4 15l-21 8q0 7 1 12t1 9v6q-1 1 -10 5q-4 1 -10 3q0 7 1 13q1 5 1 10
v7q-2 3 -9 5q-4 1 -9 2l6 30l-14 8l17 28l-7 20l25 18v21q0 2 13 6q6 2 14 3l3 20l33 8l8 21l27 -6l5 18l63 -84z" />
    <glyph glyph-name="bar" unicode="|" horiz-adv-x="168" 
d="M142 575q1 -9 0 -18q-1 -8 -3.5 -17t-7.5 -16l12 -26l-13 -26q2 -7 5 -12q2 -5 4 -9.5t3 -6.5q1 -4 -5.5 -14t-6.5 -14q0 -5 5 -15q2 -5 5 -11l-6 -20q-2 -8 -4 -15t-2 -9q0 -7 3 -17q1 -6 3 -13l-13 -27q2 -6 5 -10q2 -4 4 -7.5t3 -5.5q2 -4 -5 -11.5t-7 -11.5
q0 -2 1.5 -7.5t3.5 -11.5t4 -11.5t3 -7.5t-0.5 -6t-3 -9t-3 -9.5t-0.5 -6.5q1 -3 1.5 -9.5t1.5 -14.5l2 -18l-13 -26l6 -32l-5 -22l7 -30l-90 -24l-5 32l2 10q0 5 -0.5 10.5t-2.5 13.5q2 7 5 12q5 10 7 16q0 2 -2.5 5.5t-5.5 6.5l-8 8l14 31l-14 21l12 26l-12 28l12 36
l-12 19l7 36l-14 25q2 8 5 14q2 5 3.5 10t3.5 7t1.5 7t-2.5 10q-2 6 -4 13q1 7 3 13q2 5 3 10.5t3 7.5t0.5 6t-4.5 8l-8 10l5 28l-10 27l12 22l-18 27l130 21v0z" />
    <glyph glyph-name="braceright" unicode="}" horiz-adv-x="234" 
d="M17 560l63 84l5 -18l27 6l8 -21l33 -8l3 -20q7 -1 13 -3q5 -2 9.5 -3.5t4.5 -2.5v-21l25 -18l-7 -20l17 -28l-14 -8l6 -30q-5 -1 -9 -2l-6 -2t-3 -3q-1 -2 -0.5 -7t1.5 -10q1 -6 1 -13q-6 -2 -10 -3q-10 -4 -10 -5q-1 -2 -0.5 -6t1.5 -9t1 -12l-22 -8l5 -15l-8 -8
q-3 -3 -5.5 -6t-1.5 -4v-10v-8l8 -24l14 11l12 -22l23 8l8 -12l18 7l2 -40h-26l1 -16l-26 -6v-14l-21 -10l9 -13l-9 -18q8 -3 13 -5t8.5 -3.5t2.5 -1.5q-2 -1 -5 -11t-1 -10t12.5 -1.5t10.5 -3.5t-1 -7t-3 -11q-2 -7 -4 -15l6 -4q1 -1 2.5 -1.5t2.5 -1.5l2 -2
q0 -1 -1.5 -5.5l-3.5 -10.5q-2 -7 -4 -15l2 -26l-10 -2q-4 -1 -7 -2.5t-2 -2.5q0 -1 -0.5 -5t-2.5 -9l-4 -12q-7 1 -12 1t-8.5 -1t-3.5 -3q0 -4 -4 -15.5t-5 -13.5t-4.5 -1.5t-8.5 1.5t-13 2l-13 -20l-20 8l-8 -23l-27 6l-15 -12l-17 4l3 92q5 -1 9 -1t7 -0.5t4 0.5
q10 5 21 5q6 0 12 -1q1 5 3 9q4 8 6 9q1 0 4 1l6 2l8 2l-5 12l14 21l-12 11l7 23l-22 9l-2 24l-20 5l-1 26l-18 6l-1 26l20 10q-1 6 -1 10v7.5t2 3.5q1 0 9 2q4 1 8 3l10 12l-28 17l4 18l-17 7l-4 6q-4 6 -1 8q2 1 4 4.5t4 8.5q3 5 6 11l-11 12q3 5 6 9q2 4 4 7.5t3 5.5
q2 3 7 5.5t7 4.5q1 1 -1.5 10.5t-0.5 11.5q1 1 3.5 4.5t6.5 7.5t9 10l16 12l-1 17l13 17l-19 12l2 25l-10 -4q-10 -4 -10 -1q0 1 -1 5.5t-2.5 9.5t-3 9t-2.5 4t-5.5 -0.5t-9 -1.5t-7.5 -1.5t-3 0.5t0.5 4.5t0.5 7.5v9l-19 -7z" />
    <glyph glyph-name="asciitilde" unicode="~" horiz-adv-x="323" 
d="M8 311q0 5 1 9q2 10 4 10t5 -0.5t7 -0.5q4 -1 9 -1l12 29l18 -4l10 23l16 -8l13 19l13 -13h21l-1 -21l19 -5l-3 -18l22 -3l2 -20l20 2q8 -10 8 -11q0 -2 -1 -3l13 16l8 -2q3 -1 6 -1t3 2q0 4 3 13q2 4 4 11l16 -4l10 24l49 -77l-21 -2l1 -19l-25 -9l-7 -26l-35 -1l-4 -10
q-2 -4 -3.5 -7.5t-3.5 -3.5q-2 -1 -5 1t-7 4l-10 6l-22 -22l-27 27l10 23l-24 5l-4 23l-20 2l-2 19l-19 4l-3 -17l-17 4l-2 -18l-18 -8z" />
    <glyph glyph-name="cent" unicode="&#xa2;" horiz-adv-x="282" 
d="M268 338l-17 -20l15 -27q-22 -1 -39 0q-14 1 -26 3.5t-10 8.5l-8 20q2 4 3 8q2 9 -1 22q1 5 1 10q0 9 -3 23q-3 -3 -7 -4q-3 -1 -7 0t-9 7q-6 -5 -11 -8q-5 -2 -11 -3t-12 3l-19 -3q2 -8 2 -15q0 -6 -1.5 -12.5t-5.5 -10.5l13 -35l-12 -20l15 -22q0 -6 -1 -11t-1.5 -8.5
t0.5 -5.5q2 -4 11.5 -8.5t13.5 -6.5q2 -1 4 -11q1 -4 1 -10h22l20 -7q1 6 5 11q5 11 18 12l17 24l31 -33l-1 -42l-22 -8v-14q-1 -6 -2 -13.5t-5 -14.5q-2 -2 -5 -4q-2 -2 -5.5 -4t-8.5 -3l6 -4l-19 -21l11 -13l-13 -11l7 -14l-57 -10l7 21l-17 18l12 17l-6 16q-5 3 -11 6.5
t-10 5.5t-7.5 5.5t-5.5 7.5q-3 4 -5 10l-32 7q-3 6 -5 12q-5 10 -5 18q0 6 -9.5 12.5t-12.5 10.5q-1 2 -1 7.5t0.5 12.5t1 12.5t1.5 7.5t-1.5 7.5t-4.5 10.5q-4 6 -7 14q2 8 2 17q0 8 -2 15.5t-8 13.5q2 8 2 15q0 6 -2.5 12t-9.5 11l7 31q-2 1 -2 5q0 3 1.5 8.5t7.5 13.5
l-9 30q5 -1 9 -1h12q5 0 12 11l8 12q6 -4 11 -5t10.5 0t11.5 8q2 -2 6 -4q6 -3 16 -3l-2 12l19 11l-19 18q1 3 3 6q4 6 4 8q0 1 -4 11q-2 4 -3 9l97 5l-12 -18l12 -12l-18 -21l14 -7l-12 -13l4 -9q10 0 16 5l22 -13l18 8l17 -14q0 -7 -1 -14q-2 -13 -12 -28l8 -12q3 -5 5 -9
l3 -6t-1.5 -5t-5.5 -7l-9 -9z" />
    <glyph glyph-name="caron" unicode="&#x2c7;" horiz-adv-x="833" 
 />
    <glyph glyph-name="quoteleft" unicode="&#x2018;" horiz-adv-x="154" 
d="M21 481q9 2 12 6t3 9t-3 13l15 12l-5 22l20 3l-2 21l22 2v21l19 3l46 -30l-19 -12l6 -23l-18 -20q7 -11 3 -24q-2 -6 -6 -11l9 -18q-7 -6 -7 -16q0 -4 1 -9l-92 -21q2 7 1 13t-3 11t-5 10q6 4 7.5 10.5t0.5 12.5q-1 7 -5 15z" />
    <glyph glyph-name="quoteright" unicode="&#x2019;" horiz-adv-x="158" 
d="M146 563q-7 -4 -8 -10.5t1 -12.5q2 -7 5 -15q-9 -2 -12.5 -6.5t-3.5 -9.5q0 -6 3 -12l-14 -12l5 -22l-20 -3l2 -21l-22 -2v-21l-19 -3l-46 30l19 12l-7 23l19 20q-5 6 -5 12t2 11q2 6 5 12l-8 18q7 6 7 16q0 4 -1 9l92 21q-2 -7 -1.5 -13t2.5 -11t5 -10z" />
    <glyph glyph-name="quotedblleft" unicode="&#x201c;" horiz-adv-x="300" 
d="M162 481q9 2 12 6t3 9t-3 13l15 12l-5 22l20 3l-2 21l22 2v21l19 3l46 -30l-19 -12l6 -23l-18 -20q7 -11 3 -24q-2 -6 -6 -11l9 -18q-7 -6 -7 -16q0 -4 1 -9l-92 -21q2 7 1 13t-3 11t-5 10q6 4 7.5 10.5t0.5 12.5q-1 7 -5 15zM30 443q3 -5 5 -10q4 -11 1 -24l92 21
q-1 5 -1 9q0 10 7 16l-8 18q3 5 5 11q4 13 -3 24l19 20l-7 23l19 12l-46 30l-19 -3v-21l-22 -2l2 -21l-20 -3l5 -22l-14 -12q2 -8 2 -13t-3 -9t-12 -6q3 -8 5 -15q2 -6 0.5 -12.5t-7.5 -10.5z" />
    <glyph glyph-name="quotedblright" unicode="&#x201d;" horiz-adv-x="278" 
d="M136 525q-9 -2 -12 -6.5t-3 -9.5q0 -6 3 -12l-15 -12l5 -22l-20 -3l2 -21l-22 -2v-21l-19 -3l-46 30l19 12l-6 23l18 20q-5 6 -5 12t2 11q2 6 6 12l-9 18q7 6 7 16q0 4 -1 9l92 21q-2 -7 -1 -13t3 -11t5 -10q-7 -4 -8 -10.5t0 -12.5q1 -7 5 -15zM268 563q-3 5 -5 10
t-2.5 11t1.5 13l-92 -21q1 -5 1 -9q0 -10 -7 -16l8 -18q-3 -6 -5 -12q-2 -5 -2 -11t5 -12l-19 -20l7 -23l-19 -12l46 -30l19 3v21l22 2l-2 21l20 3l-5 22l14 12q-3 6 -3 12q0 5 3.5 9.5t12.5 6.5q-3 8 -5 15q-2 6 -1 12.5t8 10.5z" />
    <glyph glyph-name="ellipsis" unicode="&#x2026;" horiz-adv-x="651" 
d="M201 43l-13 -53q-5 2 -10 2t-11 -1t-11 -6l-23 10l-21 -16l-19 10l-23 -10l-19 13l-17 -12l-7 70l16 -10l11 20q7 -1 13 -3q5 -2 9.5 -3t6.5 -1q2 -1 6 10q2 4 4 11l33 -9l23 13l19 -13l31 19zM418 43l-13 -53q-5 2 -10 2t-11 -1t-11 -6l-23 10l-21 -16l-19 10l-23 -10
l-19 13l-17 -12l-7 70l16 -10l11 20q7 -1 13 -3q5 -2 9.5 -3t6.5 -1q2 -1 6 10q2 4 4 11l33 -9l23 13l19 -13l31 19zM635 43l-13 -53q-5 2 -10 2t-11 -1t-11 -6l-23 10l-21 -16l-19 10l-23 -10l-19 13l-17 -12l-7 70l16 -10l11 20q7 -1 13 -3q5 -2 9.5 -3t6.5 -1q2 -1 6 10
q2 4 4 11l33 -9l23 13l19 -13l31 19z" />
    <glyph glyph-name="trademark" unicode="&#x2122;" horiz-adv-x="481" 
d="M23 557q7 1 12 1h9t5 1q2 0 9.5 6.5t9.5 5.5t13 -2.5t13 -0.5q1 0 3.5 2t6.5 4q4 3 9 5q6 -1 11 -2t8.5 -1.5t4.5 1.5q1 1 4 3l6 4q4 3 7 6l25 -3l16 10l12 -3l-2 -62l-9 2l-12 -11l-16 7q0 -4 -1 -7q-2 -6 -4 -6h-3.5t-4.5 1q-4 0 -7 1l-5 -15q3 -2 5 -5q4 -6 3 -7
t-2 -5.5t-2 -10t-1.5 -9.5t-0.5 -5q0 -2 2.5 -12t1.5 -13q-2 -4 -4 -12q-2 -4 -3 -8l3 -45l-7 -13q2 -5 4 -9q4 -9 2 -12q-2 -2 -5 -9t-2 -9t2 -12t1 -13q-1 -3 -3.5 -9.5t-1.5 -9.5q0 -2 1 -4.5t2 -5.5q1 -4 2 -7l-2 -24l-44 -13l1 21l-7 19q2 6 4 11t3 8t1 5t-3.5 11.5
t-4.5 11.5q-2 2 4 8.5t5 9.5q-1 2 -2 6t-3 9l-4 12q2 3 4 7q2 3 3.5 5.5t1.5 3.5q0 2 -3.5 11t-4.5 11q-2 2 2 10q2 4 4 7l-9 24l7 15l-9 21l5 17l-6 14l-6 4l-12 -7l-11 7l-14 -7l-12 -3zM467 258h-1h1zM459 264q6 -6 7 -6q-2 0 -11 -1.5t-19.5 -3.5t-19.5 -4t-10 -2l-4 18
q1 2 2 5q1 2 2 3.5t1 2.5q0 2 -2.5 8.5t-2.5 8.5q-1 1 1 7q1 3 2 5q-2 5 -4 9q-4 10 -4 11q-1 2 2 8l4 8q0 1 -1.5 4.5t-3.5 7.5q-3 4 -5 10q-1 2 -1 5v7q0 1 -2 4.5t-4 7.5q-3 4 -5 9l2 8q1 3 1 5.5v3.5q0 2 -2 10t-3 10l-6 6l-2 18l-3 -14l-5 -3l3 -10l-6 -13l-4 -6
q-3 -5 -3 -8q0 -1 2 -7q1 -3 3 -6q-2 -2 -3 -5l-2 -6q0 -2 3 -7.5t4 -6.5q0 -2 -3.5 -7.5t-4.5 -7.5q0 -2 2 -10t2 -10q0 -1 -1 -3l-2 -4q-1 -3 -2 -7l7 -15l-6 -6q-5 -5 -5 -7q0 -4 3 -8q1 -4 3 -7q-1 -4 -2 -7q-2 -7 -1 -8q0 -2 2 -8q1 -4 2 -7l-8 -8l1 -15l-14 -2v4
q0 4 -2 6l-4 6q-2 3 -3 6l2 6q2 7 1 9q-1 1 -2 3.5t-3 4.5q-2 3 -5 5l1 18l-13 7l-2 26q0 3 1 7q1 3 1 5.5v3.5q-2 2 -7.5 9t-7.5 9q-1 2 4 9.5t4 9.5t-6 10t-6 10t1.5 8.5t0.5 9.5q-2 2 -4.5 10t-4.5 8q-1 0 3 8l-9 18l-2 -14l-7 -4l1 -6l-7 -9l7 -14l-9 -4l-2 -18l3 -13
q-3 -3 -6 -7q-5 -7 -5 -9q0 -3 3 -9q1 -4 3 -7l-10 -16l8 -18q-2 -4 -3 -8q-2 -3 -2.5 -6.5t-1.5 -4.5q0 -2 4 -8q2 -4 4 -7q-1 -4 -3 -7q-2 -2 -3.5 -4.5t-2.5 -2.5q-1 -1 3 -8q2 -4 5 -7l-4 -13l5 -11l-58 -8l1 18l8 11l-7 16l8 8l-14 27l9 16q-2 5 -4 9l-3.5 7t-1.5 4
q0 2 6 8l6 6q-4 6 -7 10q-7 9 -7 11q0 1 6 7q3 3 7 5l-5 21l11 15l-6 10q-5 8 -5 13q0 2 6 6.5t8 6.5q0 1 -0.5 4t-1.5 8q-1 4 -2 11q2 2 4 5q4 6 4 7t-0.5 4.5t-1.5 8.5t-1 12l16 13l-1 28l9 9l-7 17l20 14l7 22l14 -5q1 -3 2 -7q2 -7 6 -10q2 -1 3 -8.5t2 -9.5q0 -1 6 -7
q3 -3 5 -6v-10q0 -4 0.5 -7.5t0.5 -4.5q0 -2 6 -4q3 -2 7 -3q-1 -5 0 -9t2 -8.5t4 -7.5l-2 -16l13 -10l12 14q-2 6 -3 10t-2 7t-1 5q-2 0 4 4l6 4l-5 20l14 8l-2 10q-2 10 2 14l6 19l12 14l6 -18h14l1 -17l11 -7l-4 -19l22 -7l-4 -20l17 -12l-6 -22l13 -14q-2 -6 -5 -10
l-4 -8t-2 -5q-1 -2 5.5 -6t8.5 -5q1 -1 -3 -11.5t-5 -12.5q0 -2 6 -8q3 -3 7 -5l-2 -14q-1 -5 -1.5 -10t-0.5 -7q0 -3 3.5 -9.5t3.5 -8.5v-11t1 -11q2 -3 3.5 -6.5t2.5 -4.5q2 0 -1 -7.5t-3 -9.5t4.5 -6t4.5 -6q0 -1 -1 -4l-2 -6l-2 -8z" />
    </font>
</defs>
</svg>
